<?xml version="1.0" standalone="no"?>
<!DOCTYPE svg PUBLIC "-//W3C//DTD SVG 1.1//EN" "http://www.w3.org/Graphics/SVG/1.1/DTD/svg11.dtd" >
<svg xmlns="http://www.w3.org/2000/svg">
<metadata></metadata>
<defs>
<font id="inconsolatamedium" horiz-adv-x="1024" >
<font-face units-per-em="2048" ascent="1679" descent="-369" />
<missing-glyph horiz-adv-x="500" />
<glyph horiz-adv-x="0" />
<glyph horiz-adv-x="682" />
<glyph unicode=" " />
<glyph unicode="!" d="M369 98q0 50 35.5 85.5t85.5 35.5t86 -35.5t36 -85.5t-36 -85.5t-86 -35.5t-85.5 35.5t-35.5 85.5zM390 1214q0 52 14 88q13 32 37.5 49t52.5 17q31 0 58.5 -22t38.5 -66q8 -32 8 -83q0 -45 -8.5 -127.5t-10.5 -106.5l-37 -565h-103l-30 565q-4 69 -12 144t-8 107z" />
<glyph unicode="&#x22;" d="M228 871l44 138q20 62 20 113q0 22 -6.5 65t-6.5 65q0 56 27 84.5t61 28.5q35 0 63.5 -31.5t28.5 -95.5q0 -72 -68 -259l-50 -136zM581 871l45 138q20 62 20 113q0 22 -6.5 65t-6.5 65q0 56 26.5 84.5t60.5 28.5q35 0 63.5 -31.5t28.5 -95.5q0 -72 -68 -259l-49 -136z " />
<glyph unicode="#" d="M51 387l9 94l201 3l42 349l-223 -2l7 97l227 3l41 347l124 5l-43 -351l226 3l40 332l127 6l-41 -337l186 3l-11 -99l-187 -2l-42 -345l203 4l-11 -96l-204 -3l-45 -370l-124 -7l45 375l-227 -4l-44 -364l-120 -5l43 367zM382 487l227 4l41 345l-225 -2z" />
<glyph unicode="$" d="M122 193l88 122q9 -5 9 -19q0 -16 7 -23q102 -109 255 -126v451q-73 26 -113 44q-61 29 -104 65t-64 73.5t-29.5 69t-8.5 63.5q0 111 89 195t230 102v123h132q2 -4 2 -7q0 -7 -7 -16t-7 -20v-78q189 -19 304 -157l-88 -111q-10 2 -11 14q0 14 -2 18l-9 12 q-70 85 -194 103v-395q110 -38 135 -49q206 -91 206 -275q0 -77 -35.5 -146.5t-115 -124t-190.5 -68.5v-128h-120v124q-221 14 -359 164zM298 931q0 -94 111 -158q34 -19 72 -34v354q-91 -11 -137 -57t-46 -105zM601 152q95 18 151 78t56 132q0 101 -102 157q-35 19 -105 41 v-408z" />
<glyph unicode="%" d="M58 1031q0 115 67 191.5t161 76.5q95 0 162.5 -77.5t67.5 -192.5q0 -113 -66.5 -189.5t-161.5 -76.5t-162.5 77t-67.5 191zM94 0l707 1276h138l-715 -1276h-130zM182 1038q0 -49 11 -84t28 -51t33.5 -23t32.5 -7q38 0 69 35.5t31 115.5q0 51 -11 87t-29 52t-33.5 22 t-30.5 6q-38 0 -69.5 -36t-31.5 -117zM530 244q0 113 67.5 190t161.5 77q95 0 162 -76.5t67 -189.5t-67.5 -189.5t-161.5 -76.5q-95 0 -162 76t-67 189zM652 245q0 -83 33 -122.5t76 -39.5q41 0 73 37t32 120q0 89 -33 127t-74 38t-74 -38t-33 -122z" />
<glyph unicode="&#x26;" d="M74 299q0 119 70 229t188 174q-145 176 -145 318q0 114 82 191.5t200 77.5q116 0 194.5 -77.5t78.5 -195.5q0 -100 -60 -193t-161 -148l230 -320q63 72 92 165q3 8 3 16q0 4 -1.5 12t-1.5 12q0 14 9 21l132 -91q-69 -124 -155 -239l143 -186l-120 -90l-113 181 q-64 -79 -155 -128t-191 -49q-138 0 -228.5 91.5t-90.5 228.5zM229 314q0 -88 53.5 -145.5t133.5 -57.5q38 0 78 14.5t69.5 35.5t53 42t35.5 35l13 15l-262 353q-81 -53 -127.5 -132t-46.5 -160zM329 1017q0 -100 123 -253q71 40 113.5 106t42.5 136q0 71 -42 116t-100 45 q-56 0 -96.5 -42t-40.5 -108z" />
<glyph unicode="'" d="M422 871l45 138q20 62 20 113q0 22 -6.5 65t-6.5 65q0 56 26.5 84.5t60.5 28.5q35 0 63.5 -31.5t28.5 -95.5q0 -72 -68 -259l-49 -136z" />
<glyph unicode="(" d="M284 529q0 281 140 506t378 329l62 -125q-7 -4 -16 -4q-4 0 -11.5 1t-10.5 1q-9 0 -19 -6q-179 -106 -280 -290.5t-101 -404.5q0 -241 118.5 -451t326.5 -331l-67 -107q-242 127 -381 364.5t-139 517.5z" />
<glyph unicode=")" d="M148 -233q208 110 330.5 309.5t122.5 430.5q0 228 -119 424t-323 304l39 128q250 -115 399 -346t149 -504q0 -276 -152 -512t-407 -358z" />
<glyph unicode="*" d="M85 723l53 132l330 -155l-31 362h166q-1 -12 -6 -27t-7 -28l-31 -307l325 148l55 -125l-352 -106l258 -309l-112 -89l-220 340l-230 -342l-112 91l267 307z" />
<glyph unicode="+" d="M92 596v125h362v350h129v-350h350v-125h-350v-384h-129v384h-362z" />
<glyph unicode="," d="M338 -283q57 53 103 128q30 48 30 85q0 19 -9.5 35.5t-17 22.5t-21.5 15q-16 11 -24 17t-20.5 27t-12.5 46q0 47 34.5 82t83.5 35q57 0 99.5 -47t42.5 -123q0 -164 -218 -385z" />
<glyph unicode="-" d="M145 576v136h737v-136h-737z" />
<glyph unicode="." d="M368 95q0 48 35.5 82.5t85.5 34.5t85.5 -34.5t35.5 -82.5t-35.5 -83t-85.5 -35t-85.5 34.5t-35.5 83.5z" />
<glyph unicode="/" d="M131 -27l641 1388l122 -62l-643 -1386z" />
<glyph unicode="0" d="M102 628q0 148 36 274t94.5 208.5t132 128.5t150.5 46q59 0 117 -27t110.5 -83.5t92 -134.5t63 -187.5t23.5 -236.5t-24.5 -234t-64.5 -180.5t-93 -125t-109 -75.5t-113 -24q-77 0 -150.5 44.5t-132.5 125t-95.5 206.5t-36.5 275zM236 653q0 -128 29 -241l449 581 q-40 82 -93 124t-108 42q-48 0 -96.5 -34t-89 -96t-66 -160.5t-25.5 -215.5zM312 282q41 -83 96.5 -128.5t113.5 -45.5q35 0 71 16.5t71.5 54.5t62.5 93t44 140t17 188q0 146 -26 256z" />
<glyph unicode="1" d="M180 1103l334 175h99v-1280h-143v1101l-256 -76z" />
<glyph unicode="2" d="M150 0v90q75 149 163 258t208 217q34 31 49.5 45.5t48.5 47t49.5 57t37 58.5t29.5 70t9 73q0 102 -71.5 172t-173.5 70q-75 0 -132.5 -36t-85.5 -80q-5 -8 -8.5 -23t-9.5 -24l-104 83q56 96 152 151.5t205 55.5q155 0 262.5 -104.5t107.5 -254.5q0 -65 -20 -125.5 t-58.5 -113.5t-69 -86.5t-76.5 -76.5q-6 -5 -41.5 -38t-50.5 -47.5t-49 -48t-55.5 -58.5t-50.5 -60.5t-53.5 -72t-46.5 -74.5h535q12 0 22 9q13 13 28 9v-143h-750z" />
<glyph unicode="3" d="M141 124l108 129q9 -10 14 -29t13 -29q8 -9 19.5 -19t37.5 -27.5t63.5 -29t78.5 -11.5q110 0 183.5 76.5t73.5 183.5q0 112 -84 177.5t-216 65.5q-29 0 -64 -5v115q131 0 201 32q64 28 100 84t36 117q0 83 -63 141t-159 58q-128 0 -220 -98l-79 89q60 65 140 100.5 t166 35.5q149 0 250 -95t101 -228q0 -93 -52.5 -169t-138.5 -108q99 -36 159.5 -125.5t60.5 -203.5q0 -155 -108 -264t-285 -109q-97 0 -184.5 37.5t-151.5 108.5z" />
<glyph unicode="4" d="M99 353v107l543 818h120v-799h164v-127h-164v-352h-149v353h-514zM240 479h375v571z" />
<glyph unicode="5" d="M131 173l127 96q10 -7 11 -25.5t4 -23.5q4 -8 21 -24.5t46 -39t74 -38.5t93 -16q108 0 183 81.5t75 222.5q0 144 -76.5 224.5t-184.5 80.5q-66 0 -129.5 -31.5t-109.5 -89.5l-92 37l44 649h647v-129h-526l-20 -368q100 50 208 50q167 0 276.5 -114t109.5 -312 q0 -200 -115 -313t-288 -113q-115 0 -215 51.5t-163 144.5z" />
<glyph unicode="6" d="M138 581q0 240 54 393q56 158 164.5 237t231.5 79q162 0 280 -116l-99 -110q-11 8 -18.5 24.5t-12.5 21.5q-7 7 -23 17.5t-52 23t-74 12.5q-34 0 -67.5 -8.5t-78.5 -39.5t-78.5 -82t-58.5 -145t-27 -218q42 71 115 112.5t156 41.5q68 0 130.5 -28.5t111.5 -80.5 t78.5 -132t29.5 -177q0 -191 -106.5 -309t-257.5 -118q-88 0 -168 43.5t-134 125.5q-96 145 -96 433zM286 527q-13 -177 62.5 -299t193.5 -122q89 0 153.5 75.5t64.5 216.5q0 79 -20 139t-53.5 94t-71.5 50.5t-79 16.5q-71 0 -139 -46t-111 -125z" />
<glyph unicode="7" d="M161 1140v136h723v-79q-129 -295 -242 -600q-118 -320 -204 -597h-161q119 360 244 682q69 180 186 458h-546z" />
<glyph unicode="8" d="M123 321q0 109 70.5 206.5t184.5 151.5q-88 45 -141 125.5t-53 173.5q0 130 100 222t245 92q140 0 236 -88t96 -214q0 -92 -55.5 -175.5t-148.5 -132.5q110 -50 178.5 -146t68.5 -207q0 -146 -113 -248t-280 -102q-164 0 -276 99.5t-112 242.5zM270 340q0 -96 72 -164 t176 -68q101 0 171 65t70 158t-74.5 171.5t-198.5 117.5q-94 -39 -155 -115.5t-61 -164.5zM322 990q0 -47 23 -91t56 -73t66 -51t56 -32l23 -10q77 41 126 108t49 139q0 80 -59 136t-144 56q-83 0 -139.5 -53t-56.5 -129z" />
<glyph unicode="9" d="M140 866q0 182 106.5 302t258.5 120q109 0 204 -69t142 -207q44 -128 44 -358q0 -233 -54 -378q-55 -146 -163.5 -221.5t-232.5 -75.5q-166 0 -282 116l99 110q12 -7 18.5 -25t14.5 -24q7 -5 20 -13t53 -21t81 -13q76 0 144.5 43t107.5 133q46 113 52 316 q-44 -65 -114 -101.5t-149 -36.5q-144 0 -247 112.5t-103 290.5zM279 872q0 -135 66.5 -209.5t158.5 -74.5q69 0 134.5 42.5t107.5 113.5q17 186 -56.5 301.5t-187.5 115.5q-92 0 -157.5 -78t-65.5 -211z" />
<glyph unicode=":" d="M368 95q0 48 35.5 82.5t85.5 34.5t85.5 -34.5t35.5 -82.5t-35.5 -83t-85.5 -35t-85.5 34.5t-35.5 83.5zM368 749q0 48 35.5 82.5t85.5 34.5t85.5 -35t35.5 -83t-35.5 -82.5t-85.5 -34.5t-85.5 34.5t-35.5 83.5z" />
<glyph unicode=";" d="M338 -283q57 53 103 128q30 48 30 85q0 19 -9.5 35.5t-17 22.5t-21.5 15q-16 11 -24 17t-20.5 27t-12.5 46q0 47 34.5 82t83.5 35q57 0 99.5 -47t42.5 -123q0 -164 -218 -385zM368 749q0 48 35.5 82.5t85.5 34.5t85.5 -35t35.5 -83t-35.5 -82.5t-85.5 -34.5t-85.5 34.5 t-35.5 83.5z" />
<glyph unicode="&#x3c;" d="M71 606l873 -509v154l-716 403l711 362v145l-868 -456v-99z" />
<glyph unicode="=" d="M92 348v126h841v-126h-841zM92 772v126h841v-126h-841z" />
<glyph unicode="&#x3e;" d="M81 97v154l716 403l-710 362v145l867 -456v-99z" />
<glyph unicode="?" d="M131 1149q66 101 172 157.5t223 56.5q167 0 265 -105.5t98 -256.5q0 -46 -11 -87.5t-25.5 -69.5t-40.5 -58t-42.5 -45t-45.5 -38.5t-38 -31.5q-57 -51 -73 -96.5t-16 -111.5v-85h-134v85q0 82 17 138.5t79 124.5q7 8 39.5 41t48 52t38 52t32.5 68t10 73q0 91 -61.5 154 t-153.5 63q-78 0 -153 -48t-124 -129zM413 91q0 48 36 83t86 35t85.5 -35t35.5 -83t-35.5 -83t-85.5 -35t-86 34.5t-36 83.5z" />
<glyph unicode="@" d="M64 643q0 134 30 245.5t78.5 185.5t113.5 125.5t133 74t137 22.5q113 0 207.5 -60t143.5 -167q21 -46 31.5 -101t12.5 -93t2 -101v-415h-124v78q-80 -96 -205 -96q-110 0 -188 78t-78 189q0 85 51.5 159.5t143.5 110.5q38 15 84 22.5t75.5 8.5t81.5 1h30q0 114 -80 195 t-194 81q-68 0 -132.5 -33t-117.5 -96.5t-85.5 -169t-32.5 -238.5q0 -115 26.5 -210.5t69.5 -158t100 -105.5t116.5 -62t121.5 -19q121 0 220 67l55 -99q-133 -85 -287 -85q-79 0 -154.5 23t-146 75t-123 127.5t-84.5 189t-32 251.5zM486 614q0 -67 47 -113.5t115 -46.5 q46 0 87 24t64 69q15 29 22 71.5t7.5 66.5t0.5 84v39h-34q-49 0 -78.5 -2t-73.5 -13t-76 -33q-81 -56 -81 -146z" />
<glyph unicode="A" d="M30 -2l451 1301h16l493 -1299h-149l-141 373h-405l-124 -375h-141zM323 484h345l-180 486z" />
<glyph unicode="B" d="M99 0v1276h362q50 0 81 -1.5t76 -10t82 -24.5q88 -38 136.5 -113t48.5 -163q0 -92 -51.5 -168.5t-137.5 -111.5q107 -36 173 -127.5t66 -203.5q0 -101 -56 -186.5t-157 -128.5q-41 -17 -90 -26t-82.5 -10.5t-89.5 -1.5h-361zM240 125h244q108 0 165 26q65 29 100.5 88 t35.5 129q0 71 -38 133t-107 95q-66 31 -191 31h-209v-502zM240 748h200q118 0 177 25q59 26 91.5 74t32.5 104q0 57 -34 106t-96 74q-57 23 -169 23h-202v-406z" />
<glyph unicode="C" d="M83 631q0 147 32 264t81.5 188.5t115.5 119t129 66t127 18.5q127 0 233.5 -68.5t158.5 -184.5l-136 -67q-10 8 -10 20q0 3 0.5 8t0.5 7q0 10 -7 22q-40 68 -105 108t-139 40q-142 0 -241.5 -142.5t-99.5 -386.5q0 -249 102.5 -395t250.5 -146q75 0 145.5 42t114.5 114 l106 -69q-60 -98 -160 -154t-214 -56q-55 0 -109 14.5t-109.5 44.5t-103 82.5t-84.5 122t-58 169.5t-21 219z" />
<glyph unicode="D" d="M110 -2v1278h298q97 0 165 -13.5t132 -54.5q119 -78 178 -227t59 -341q0 -211 -73 -366t-209 -225q-62 -32 -124.5 -41.5t-151.5 -9.5h-274zM246 111h130q75 0 130 11t109 47q183 124 183 452q0 333 -158 463q-53 44 -109.5 57t-131.5 13h-153v-1043z" />
<glyph unicode="E" d="M120 0v1278h783v-127h-647v-419h534v-131h-534v-474h642v-127h-778z" />
<glyph unicode="F" d="M159 0v1278h735v-126h-590v-401h477v-124h-477v-627h-145z" />
<glyph unicode="G" d="M74 623q0 116 18.5 213t49.5 164t73.5 119.5t86.5 83.5t94 51t91 27t81 7q118 0 217 -57t154 -156l-101 -103q-15 9 -28 40q-30 67 -95 109t-148 42q-84 0 -161.5 -47t-125.5 -136q-64 -120 -64 -327q0 -298 121 -435q98 -112 243 -112q119 0 229 78v304h-231v124h364 v-499q-88 -65 -186 -99t-189 -34q-70 0 -137 20t-132.5 68t-114.5 119.5t-79 184t-30 251.5z" />
<glyph unicode="H" d="M111 0v1276h159q0 -1 1 -3q2 -4 2 -6q0 -7 -6.5 -17.5t-6.5 -22.5v-497h500v546h156q2 -3 2 -9q0 -7 -7.5 -16.5t-7.5 -20.5v-1232h-145v610h-498v-608h-149z" />
<glyph unicode="I" d="M166 -2v120h251v1038h-237v120h633v-120h-253v-1039h265v-119h-659z" />
<glyph unicode="J" d="M101 118l95 117q6 -6 7.5 -19t5.5 -18q6 -8 27 -27.5t69 -43t96 -23.5q97 0 151 81q14 20 23 47t13.5 44t6.5 54t2 45.5v50.5v730h-245v120h583v-120h-196v-728q0 -60 -2 -96t-13.5 -89.5t-34.5 -95.5q-43 -82 -120.5 -126t-170.5 -44q-85 0 -162.5 37t-134.5 104z" />
<glyph unicode="K" d="M87 0v1278h171q2 -13 -12 -30q-7 -9 -7 -23v-537l533 599q43 -11 106 -11h53l-482 -551l516 -727q-45 0 -90.5 -2t-68.5 -4l-23 -1l-444 647l-100 -110v-528h-152z" />
<glyph unicode="L" d="M136 -2v1278h166q2 -14 -7 -32q-10 -18 -10 -37v-1085h615v-124h-764z" />
<glyph unicode="M" d="M83 -2v1278h113l317 -624l321 626h108v-1280h-136v965l-276 -514h-55l-258 507v-958h-134z" />
<glyph unicode="N" d="M103 0v1276h139l536 -945v947h152q2 -10 -6 -26q-8 -14 -8 -29v-1225h-114l-562 1006v-1004h-137z" />
<glyph unicode="O" d="M60 640q0 144 30 259.5t76.5 187t109 119t122.5 66t121 18.5q110 0 208.5 -61t159.5 -179q78 -152 78 -415q0 -255 -76 -408q-60 -122 -159.5 -184t-209.5 -62q-62 0 -123 20t-123 68.5t-108.5 121.5t-76 189t-29.5 260zM201 659q0 -117 19.5 -211.5t51.5 -154.5 t74.5 -100t86 -56.5t88.5 -16.5q70 0 136 42.5t108 130.5q57 121 57 324q0 213 -50 337q-41 103 -112 152.5t-147 49.5q-43 0 -84.5 -14.5t-83 -51.5t-73 -91.5t-51.5 -142.5t-20 -197z" />
<glyph unicode="P" d="M120 0v1276h389q51 0 83 -2t76 -12t82 -29q88 -45 135.5 -130.5t47.5 -185.5t-47 -184t-133 -128q-37 -18 -79.5 -27.5t-73.5 -11.5t-80 -2h-251v-564h-149zM267 689h258q97 0 148 26q54 27 84 80t30 115q0 64 -31.5 119.5t-89.5 84.5q-56 28 -157 28h-240z" />
<glyph unicode="Q" d="M60 640q0 145 30 260.5t76.5 186.5t109 118.5t122.5 66t121 18.5q111 0 210 -61.5t159 -181.5q77 -154 77 -414q0 -255 -76 -407q-50 -102 -129.5 -162t-170.5 -77q1 -31 7 -55t20.5 -48.5t45.5 -38t77 -13.5q25 0 81.5 5t84.5 6l-4 -140q-25 0 -79 -1h-33q-29 0 -43 1 q-20 1 -55.5 3.5t-59 9.5t-46.5 18q-122 61 -122 242v9q-59 9 -113.5 35t-108.5 78t-93 123.5t-63.5 179.5t-24.5 239zM200 661q0 -117 19 -212t51 -156.5t74 -103t86.5 -59t91.5 -17.5q37 0 73.5 11t79.5 44.5t75.5 86.5t54.5 146.5t22 214.5q0 211 -52 340 q-42 105 -114 154t-148 49q-44 0 -86 -15.5t-84 -52.5t-73 -92.5t-50.5 -142.5t-19.5 -195z" />
<glyph unicode="R" d="M115 0v1276h376q51 0 83.5 -2t77.5 -12t83 -29q86 -44 133.5 -126.5t47.5 -180.5q0 -127 -72 -226.5t-188 -130.5l295 -569h-161l-283 564h-247v-564h-145zM260 689h247q97 0 148 26q54 27 84 80t30 115q0 64 -31.5 119.5t-89.5 84.5q-56 28 -157 28h-231v-453z" />
<glyph unicode="S" d="M106 143l85 147q9 -4 9 -20q0 -14 6 -22q47 -60 127 -100t178 -40q130 0 204.5 70t74.5 161q0 110 -107 176q-38 24 -185.5 83.5t-213.5 108.5q-136 101 -136 249q0 135 110 231t279 96q105 0 197.5 -41t156.5 -118l-90 -122q-11 3 -11 17q0 12 -5 20q-39 57 -106.5 91.5 t-153.5 34.5q-105 0 -167.5 -55t-62.5 -132q0 -115 130 -190q43 -25 127 -57.5t158 -69t123 -82.5q99 -93 99 -232q0 -50 -14 -100t-46.5 -99t-80 -86t-121 -60t-163.5 -23q-120 0 -223.5 41.5t-177.5 122.5z" />
<glyph unicode="T" d="M64 1149v129h883v-129h-376v-1151h-145v1151h-362z" />
<glyph unicode="U" d="M103 440v836h160q2 -6 2 -10q0 -7 -13 -28q-8 -11 -8 -27v-773q0 -121 31 -188q34 -72 99.5 -111.5t143.5 -39.5q77 0 143 38.5t100 110.5q33 69 33 196v832h136v-829q0 -87 -9.5 -149t-41.5 -122q-53 -97 -151 -148t-213 -51q-117 0 -214 51t-149 147q-32 59 -40.5 119 t-8.5 146z" />
<glyph unicode="V" d="M51 1278h150l327 -981l310 979h141l-428 -1285h-65z" />
<glyph unicode="W" d="M35 1276h133l138 -862l205 768h44l207 -772l116 866h121l-202 -1285h-56l-220 843l-222 -843h-59z" />
<glyph unicode="X" d="M83 0l349 651l-342 627h154l269 -485l263 485h143l-323 -624l362 -654h-161l-284 506l-273 -506h-157z" />
<glyph unicode="Y" d="M58 1278h163l313 -621l283 619h152l-363 -772v-504h-155v504z" />
<glyph unicode="Z" d="M103 -2v101l643 1048h-619v129h789l-2 -101l-631 -1050h602q14 0 31.5 7.5t30.5 5.5v-140h-844z" />
<glyph unicode="[" d="M269 -182v1554h585v-122h-455v-1315h456v-117h-586z" />
<glyph unicode="\" d="M131 1299l122 62l641 -1388l-120 -60z" />
<glyph unicode="]" d="M170 -65h456v1315h-455v122h585v-1554h-586v117z" />
<glyph unicode="^" d="M191 751l313 525h44l277 -523l-109 -51l-198 358l-225 -358z" />
<glyph unicode="_" d="M71 -39h883v-125h-883v125z" />
<glyph unicode="`" d="M285 1323l105 51l55 -134q25 -61 58 -100q15 -17 47 -45.5t46 -45.5q24 -29 30.5 -58.5t-1.5 -50t-24 -34.5q-17 -14 -39.5 -18t-53.5 9.5t-59 46.5q-26 30 -50.5 83t-63.5 160z" />
<glyph unicode="a" d="M100 242q0 83 54.5 155.5t160.5 111.5q55 20 133.5 30t124 11t146.5 0h30v35q0 36 -1 54.5t-8 50.5t-21 56q-54 90 -193 90q-168 0 -268 -104l-72 93q127 131 333 131q110 0 195.5 -40t130.5 -115q29 -49 37.5 -99.5t8.5 -121.5v-580h-140v103q-153 -126 -336 -126 q-141 0 -228 78.5t-87 186.5zM249 252q0 -66 53.5 -114t142.5 -48q81 0 144.5 35t101.5 75q29 31 44 66t17.5 56t2.5 54v62h-34h-73h-54h-35q-26 0 -70.5 -3.5t-74.5 -10.5q-82 -20 -123.5 -68t-41.5 -104z" />
<glyph unicode="b" d="M122 0v1363h173q2 -10 -11 -23q-12 -10 -12 -23v-525q44 77 121.5 121.5t166.5 44.5q71 0 137 -29.5t120.5 -86.5t87 -151t32.5 -212q0 -122 -34 -220.5t-90 -158.5t-124.5 -91.5t-142.5 -31.5q-84 0 -157.5 39.5t-119.5 107.5l-52 -124h-95zM272 498q0 -136 6 -185 q7 -51 27.5 -89.5t45 -59.5t55.5 -34t54.5 -16.5t46.5 -3.5q32 0 64.5 7t72 29.5t69 58t50 98.5t20.5 145q0 94 -20.5 166t-50 112t-69.5 65t-71.5 32.5t-62.5 7.5q-70 0 -128 -36.5t-84 -99.5q-25 -61 -25 -197z" />
<glyph unicode="c" d="M115 468q0 211 132 348.5t338 137.5q111 0 202.5 -45.5t147.5 -127.5l-104 -122q-9 7 -9.5 24.5t-3.5 23.5q-2 5 -11.5 17t-30.5 30.5t-47 34.5t-67 28t-86 12q-132 0 -220.5 -95t-88.5 -251q0 -163 91.5 -267.5t229.5 -104.5q71 0 136 29.5t112 83.5l85 -99 q-66 -72 -156 -110t-189 -38q-199 0 -330 139.5t-131 351.5z" />
<glyph unicode="d" d="M92 476q0 103 24 187t63 138.5t91.5 91t106 52t109.5 15.5q95 0 167.5 -43.5t106.5 -117.5v564h157q1 -10 -11 -31q-8 -13 -8 -28l2 -1217q0 -54 8 -87h-146q-9 30 -9 69v81q-44 -79 -121.5 -125t-167.5 -46q-70 0 -135 30t-118.5 88.5t-86 156.5t-32.5 222zM235 500 q0 -88 17.5 -158.5t44.5 -113t63 -70.5t70 -38.5t68 -10.5q76 0 140.5 48t90.5 130q19 60 19 170q0 141 -16 200q-17 65 -60.5 108.5t-88.5 59t-91 15.5q-44 0 -86 -16.5t-82 -53t-64.5 -106t-24.5 -164.5z" />
<glyph unicode="e" d="M100 457q0 124 35.5 222t96 157.5t136.5 90.5t162 31q61 0 117 -17t108.5 -54t91 -104t53.5 -157q10 -59 10 -117q0 -31 -3 -62h-664q3 -80 25.5 -143t54.5 -101t74.5 -62.5t82 -33.5t80.5 -9q148 0 242 105l82 -79q-59 -71 -146 -108t-189 -37q-96 0 -177.5 31.5 t-142 90.5t-95 150.5t-34.5 205.5zM247 560h515q2 19 2 37q0 92 -60 163q-72 85 -185 85q-41 0 -81.5 -14t-80.5 -45t-70 -89t-40 -137z" />
<glyph unicode="f" d="M129 764v116h203v92q0 76 9.5 131t42.5 108q48 78 133.5 120.5t185.5 42.5q181 0 287 -128l-67 -136q-5 -1 -10.5 3.5t-6.5 13.5q-2 18 -6 24q-31 47 -85 77t-119 30q-60 0 -110 -26.5t-78 -76.5q-16 -29 -24 -68t-9 -62.5t-1 -71.5v-73h305v-116h-305v-764h-142v764 h-203z" />
<glyph unicode="g" d="M79 -131q0 110 152 207q-75 39 -75 125q0 92 106 181q-65 42 -102 109.5t-37 143.5q0 136 104.5 233.5t245.5 97.5q131 0 222 -89q99 84 228 84q15 0 31 -1l18 -120q-24 4 -54 4q-90 0 -163 -45q47 -71 47 -159q0 -130 -99.5 -225t-237.5 -95q-62 0 -119 21 q-66 -59 -66 -105q0 -45 56 -61q48 -12 134 -12q19 0 78 1q43 2 70 2h16q29 -1 74 -8t79 -21q71 -29 108 -84t37 -119q0 -39 -14 -77.5t-46.5 -77t-80.5 -67t-123 -46.5t-166 -18q-117 0 -203.5 19.5t-132 53t-66.5 70.5t-21 78zM214 -96q0 -78 92 -114q79 -31 193 -31 q134 0 210 41q88 48 88 124q0 37 -26.5 68.5t-85.5 40.5q-31 5 -105 5t-93 1q-113 5 -157 11q-116 -64 -116 -146zM258 644q0 -85 60.5 -145.5t145.5 -60.5t145.5 60.5t60.5 145.5t-60.5 145t-145.5 60t-145.5 -60t-60.5 -145z" />
<glyph unicode="h" d="M143 0v1361h170q1 -2 1 -6q0 -9 -13 -22q-8 -8 -8 -20v-542q55 82 137.5 134.5t173.5 52.5q81 0 147.5 -43.5t101.5 -121.5q34 -77 34 -226v-567h-145v564q0 46 -1.5 72t-13.5 66.5t-36 68.5q-50 59 -127 59q-66 0 -127.5 -41.5t-96.5 -88.5q-28 -37 -37.5 -73.5 t-9.5 -87.5v-539h-150z" />
<glyph unicode="i" d="M205 0v118h239v699h-227v120h375v-819h219v-118h-606zM415 1238q0 44 31 74.5t75 30.5t75 -30.5t31 -74.5t-31 -74.5t-75 -30.5t-75 30.5t-31 74.5z" />
<glyph unicode="j" d="M99 -226l95 127q7 -6 11.5 -20t6.5 -18q6 -9 17 -20.5t33.5 -30t57.5 -30.5t74 -12q61 0 111.5 31t76.5 87q24 52 24 149v778h-348v122h497v-872q0 -76 -7.5 -129t-34.5 -106q-46 -90 -135 -138.5t-193 -48.5q-87 0 -161.5 34.5t-124.5 96.5zM576 1238q0 44 31 74.5 t75 30.5t75 -30.5t31 -74.5t-31 -74.5t-75 -30.5t-75 30.5t-31 74.5z" />
<glyph unicode="k" d="M136 -2v1363h168q2 -12 -12 -29q-7 -9 -7 -24v-803l468 435q40 -10 110 -10h53l-395 -371l460 -561h-14q-44 0 -88 -2t-67 -4l-22 -1l-382 477l-123 -115v-355h-149z" />
<glyph unicode="l" d="M161 0v118h277v1124h-265v119h414v-1243h276v-118h-702z" />
<glyph unicode="m" d="M78 0v935h136l-2 -92q34 51 85 83t107 32q62 0 108 -38.5t57 -97.5q27 62 84.5 99t125.5 37q97 0 146 -74q19 -29 28 -72t9.5 -65.5t0.5 -81.5v-667h-139v665q0 5 0.5 25.5t0 30.5t-1.5 26t-4 29t-8 24q-22 52 -74 52q-61 0 -109 -84q-39 -65 -39 -147v-619h-138v650 q0 90 -10 123q-11 36 -35 54t-51 18q-66 0 -113 -87q-30 -54 -30 -134v-624h-134z" />
<glyph unicode="n" d="M140 0v935h150v-164q55 82 137.5 134.5t173.5 52.5q81 0 147.5 -43.5t101.5 -121.5q34 -77 34 -226v-567h-145v564q0 46 -1.5 72t-13.5 66.5t-36 68.5q-50 59 -127 59q-66 0 -128 -41.5t-97 -88.5q-27 -37 -36.5 -73t-9.5 -88v-539h-150z" />
<glyph unicode="o" d="M83 461q0 106 36 199t96 157.5t141.5 101.5t169.5 37q81 0 155 -32t132.5 -92t93.5 -155.5t35 -212.5q0 -113 -34.5 -206.5t-93 -154.5t-134 -94.5t-159.5 -33.5q-88 0 -168 36.5t-139.5 99.5t-95 154.5t-35.5 195.5zM239 473q0 -167 83 -269t200 -102q111 0 191.5 94 t80.5 261q0 180 -83 277t-195 97q-114 0 -195.5 -97t-81.5 -261z" />
<glyph unicode="p" d="M122 935h150v-143q48 76 127 120t169 44q71 0 137 -29t121 -85.5t88 -150.5t33 -213q0 -124 -34 -222.5t-90.5 -158.5t-125 -91t-142.5 -31q-85 0 -159.5 39.5t-121.5 109.5v-465h-150zM272 511q0 -84 1 -122t7 -81t19 -73q27 -62 85.5 -95.5t128.5 -33.5q31 0 63.5 7 t73 29t71.5 57.5t52 100t21 148.5q0 97 -22 170t-52.5 112t-72 63.5t-72.5 31t-61 6.5q-71 0 -130.5 -37t-86.5 -99q-25 -58 -25 -184z" />
<glyph unicode="q" d="M87 477q0 115 34.5 209t92 152.5t129.5 90t150 31.5q42 0 80 -9t65 -23t49.5 -31.5t36.5 -34.5t23.5 -31.5t13.5 -22.5l4 -9v136h140v-1276h-147v491q-45 -79 -121.5 -125t-165.5 -46q-160 0 -272 138.5t-112 359.5zM235 498q0 -186 80 -287.5t189 -101.5q75 0 139.5 48 t90.5 130q19 60 19 170q0 159 -22 223q-28 80 -95 120t-138 40q-49 0 -94.5 -20t-84 -59t-61.5 -107t-23 -156z" />
<glyph unicode="r" d="M203 -2v937h154l-5 -180q44 97 136.5 150t199.5 53q150 0 251 -103l-69 -141q-7 7 -13 14.5t-12 17.5t-10 15q-54 70 -155 70q-29 0 -58 -6.5t-65 -22t-72.5 -48.5t-66.5 -81q-30 -47 -45.5 -90.5t-18 -68t-2.5 -60.5v-456h-149z" />
<glyph unicode="s" d="M117 127l84 147q10 -5 10 -19q0 -16 5 -22q22 -25 53.5 -50t99 -52.5t140.5 -27.5q102 0 171.5 41.5t69.5 106.5q0 75 -94 119q-40 18 -133 47.5t-118 38.5q-19 7 -29.5 11t-37.5 16t-45 24t-42 32.5t-38.5 42t-25 52t-10.5 63.5q0 108 100 184.5t259 76.5 q104 0 194.5 -38t154.5 -109l-86 -129q-11 3 -11 17t-4 19q-37 48 -104.5 88.5t-155.5 40.5q-81 0 -139 -36.5t-58 -91.5q0 -69 93 -114q36 -17 161 -53.5t183 -69.5q137 -77 137 -211q0 -54 -25.5 -105.5t-72.5 -93.5t-123 -67.5t-168 -25.5q-235 0 -395 148z" />
<glyph unicode="t" d="M143 815l2 120h223l17 251l161 26q2 -13 1 -18.5t-6 -17t-6 -19.5q-4 -23 -10 -78t-10 -99l-4 -43h306v-122h-308q-18 -183 -18 -366q0 -132 6 -180q10 -78 54.5 -114.5t103.5 -36.5q95 0 209 85l46 -116q-143 -105 -299 -105q-143 0 -213 100q-25 36 -38 84t-15 81.5 t-2 88.5q0 245 19 479h-219z" />
<glyph unicode="u" d="M127 414l2 521h148v-521q0 -136 33 -202q27 -55 75 -85t104 -30q65 0 124 39t92 100q37 68 37 185v514h149v-850q0 -54 10 -85h-155q-4 26 -4 53v19l2 71q-46 -77 -123.5 -121.5t-165.5 -44.5q-93 0 -172 50t-119 141q-17 38 -26 85t-10 77t-1 84z" />
<glyph unicode="v" d="M81 937h177q2 -10 -2.5 -23t-4.5 -17q0 -5 4 -13l270 -684l150 348q97 225 127 389h133q-36 -167 -140 -410l-228 -534h-115z" />
<glyph unicode="w" d="M32 937h150q4 -14 -3 -41q-6 -19 -2 -37l136 -675l161 664h90l198 -662q58 384 74 522q13 116 12 197v30h136q-60 -467 -155 -937h-138l-173 606l-165 -606h-132z" />
<glyph unicode="x" d="M97 0l329 476l-323 461h160l246 -347l233 347h151l-304 -456l344 -481h-168l-258 364l-244 -364h-166z" />
<glyph unicode="y" d="M46 -277l76 132q5 -4 8 -9.5t4.5 -13t3.5 -10.5q4 -8 15 -19.5t37.5 -24.5t57.5 -13q73 0 131 61q33 35 65 109l30 69l-380 931h183q1 -10 -4 -23.5t-5 -20.5q0 -4 4 -16l274 -689l179 502q52 145 70 249h154q-39 -128 -94 -271l-291 -772q-37 -99 -81 -148 q-90 -102 -234 -102q-121 0 -203 79z" />
<glyph unicode="z" d="M103 -2v101l579 709h-537v129h728v-101l-571 -711h557q14 0 31.5 7.5t30.5 5.5v-140h-818z" />
<glyph unicode="{" d="M108 467v114h40q93 0 138 47q53 55 53 174q0 24 -3 72t-3 74q0 182 101 274q14 13 31 24t31 19t34.5 14.5t33.5 10.5t36.5 7t34 4.5t36.5 2t34 0.5h36h33h62v-116h-71q-14 0 -49.5 0.5t-48.5 0t-36.5 -2.5t-40 -8t-32.5 -16q-82 -51 -82 -191q0 -24 3 -71.5t3 -72.5 q0 -99 -32 -164q-46 -95 -146 -138q33 -11 60.5 -32t54.5 -56.5t42.5 -95t15.5 -135.5q0 -33 -3.5 -89t-3.5 -82q0 -153 84 -211q12 -8 23.5 -14t28 -9.5t25 -6t31 -3.5t28.5 -1h34.5h33.5h76v-115h-74h-41h-41.5t-36.5 0.5t-38.5 2.5t-34 4.5t-35.5 7.5t-31 11t-33 15 t-29 20q-114 88 -114 298q0 42 4 108t4 96q0 135 -54 188q-42 41 -130 41h-42z" />
<glyph unicode="|" d="M444 -309v1645h137v-1645h-137z" />
<glyph unicode="}" d="M189 1188v116h62h33h36t34 -0.5t36.5 -2t34 -4.5t36.5 -7t33.5 -10.5t34.5 -14.5t31 -19t31 -24q101 -92 101 -274q0 -26 -2.5 -74t-2.5 -72q0 -119 53 -174q45 -47 137 -47h40v-114h-42q-88 0 -130 -41q-54 -53 -54 -188q0 -30 4 -96t4 -108q0 -210 -114 -298 q-14 -11 -29 -20t-33 -15t-31 -11t-35.5 -7.5t-34 -4.5t-38.5 -2.5t-36.5 -0.5h-41.5h-41h-74v115h76h33.5h34.5t28.5 1t31 3.5t25 6t28 9.5t23.5 14q84 58 84 211q0 26 -3.5 82t-3.5 89q0 76 15.5 135.5t42.5 95t54.5 56.5t60.5 32q-100 43 -146 138q-32 65 -32 164 q0 25 3 72.5t3 71.5q0 140 -82 191q-16 10 -32.5 16t-40 8t-36.5 2.5t-48.5 0t-49.5 -0.5h-71z" />
<glyph unicode="~" d="M85 767q47 81 122 132.5t159 51.5q47 0 88.5 -16t71.5 -38.5t57.5 -45t59 -38.5t63.5 -16q46 0 85 32.5t89 100.5l94 -78q-49 -76 -123 -132.5t-161 -56.5q-46 0 -85.5 17t-68 40.5t-55 47.5t-58.5 41t-66 17q-93 0 -170 -126z" />
<glyph unicode="&#xa0;" />
<glyph unicode="&#xa1;" d="M369 1247q0 50 35.5 85.5t85.5 35.5t86 -35.5t36 -85.5t-36 -85.5t-86 -35.5t-85.5 35.5t-35.5 85.5zM382 148q0 45 8.5 127.5t10.5 106.5l37 565h103l30 -565q4 -69 12 -144t8 -107q0 -52 -14 -88q-13 -32 -37.5 -49t-52.5 -17q-31 0 -58.5 22t-38.5 66q-8 32 -8 83z " />
<glyph unicode="&#xa2;" d="M99 558q0 208 125.5 344t329.5 146l29 230l138 -14q1 -13 -7 -29q-9 -17 -11 -28l-22 -168q160 -32 243 -159l-90 -116q-9 6 -9 20q0 2 0.5 8t0.5 9t-2 7.5t-6 8.5q-58 69 -153 98l-95 -717h2q74 0 144.5 30t123.5 85l74 -99q-65 -71 -155 -109t-191 -38h-15l-30 -228 l-118 14l29 232q-152 42 -243.5 169.5t-91.5 303.5zM244 577q0 -131 56 -224.5t151 -131.5l89 708q-130 -8 -213 -102t-83 -250z" />
<glyph unicode="&#xa3;" d="M80 101q59 27 78 37t38.5 26t35.5 41q71 110 71 249q0 75 -31 203h-134v117h106q-14 67 -14 131q0 167 105.5 269t253.5 102q153 0 266 -104l-90 -113q-9 7 -15.5 22t-11.5 20q-8 9 -24 20.5t-52.5 25t-75.5 13.5q-89 0 -154 -66.5t-65 -186.5q0 -57 17 -133h203v-117 h-176q28 -118 28 -199q0 -153 -75 -274q30 5 55 5q70 0 176 -42.5t162 -42.5q85 0 151 57l55 -106q-106 -85 -213 -85q-54 0 -114.5 22.5t-124 45.5t-126.5 23q-106 0 -252 -77z" />
<glyph unicode="&#xa4;" d="M139 408l115 115q-58 82 -58 184t59 185l-116 115l73 73l116 -115q82 60 186 60q100 0 183 -59l114 114l73 -73l-113 -113q61 -83 61 -187t-60 -186l112 -113l-73 -72l-112 112q-83 -59 -185 -59q-104 0 -187 61l-115 -114zM308 707q0 -85 60.5 -145.5t145.5 -60.5 t145 60.5t60 145.5t-60 145t-145 60t-145.5 -60t-60.5 -145z" />
<glyph unicode="&#xa5;" d="M74 1278h159l297 -534l272 532h152l-357 -672v-42h276v-117h-276v-129h276v-115h-276v-201h-139v201h-287v115h287v129h-287v117h287v42z" />
<glyph unicode="&#xa6;" d="M444 -309v710h137v-710h-137zM444 604v732h137v-732h-137z" />
<glyph unicode="&#xa7;" d="M133 64l107 125q7 -3 10 -9t4.5 -15t2.5 -12q4 -10 18 -27.5t41 -42t73 -42t99 -17.5q91 0 146.5 47.5t55.5 114.5q0 90 -94 145q-40 24 -145.5 55.5t-158.5 62.5q-130 77 -130 198q0 68 46 123.5t121 82.5q-70 43 -103.5 105t-33.5 127q0 119 96.5 205t238.5 86 q101 0 185.5 -48.5t132.5 -132.5l-115 -103q-7 5 -9.5 12t-3.5 16.5t-3 13.5q-16 44 -65 82.5t-122 38.5q-80 0 -133 -46.5t-53 -111.5q0 -94 109 -152q30 -16 103.5 -42.5t114.5 -45.5q100 -47 144 -108t44 -123q0 -63 -42 -117t-110 -81q65 -44 98.5 -107t33.5 -131 q0 -123 -98.5 -212t-250.5 -89q-103 0 -196.5 46t-157.5 129zM311 688q0 -98 110 -151q33 -16 103 -35.5t104 -33.5q34 17 54 50t20 72q0 103 -118 161q-30 15 -93 35t-87 30q-41 -14 -67 -49t-26 -79z" />
<glyph unicode="&#xa8;" d="M230 1258q0 43 30 73t73 30t73.5 -30t30.5 -73t-30.5 -73.5t-73.5 -30.5t-73 30.5t-30 73.5zM596 1258q0 43 30 73t72 30t72.5 -30t30.5 -73t-30.5 -73.5t-72.5 -30.5t-72 30.5t-30 73.5z" />
<glyph unicode="&#xa9;" d="M28 561q0 218 146.5 371t350.5 153q100 0 191 -40.5t158 -110t106.5 -166.5t39.5 -205q0 -144 -67 -264.5t-181 -190t-248 -69.5t-248 69t-181 189.5t-67 263.5zM121 562q0 -182 119 -308.5t286 -126.5q166 0 285.5 126.5t119.5 309.5q0 182 -119 309t-285 127t-286 -127 t-120 -310zM235 565q0 130 88.5 216.5t213.5 86.5q95 0 165 -53t90 -136l-106 -41q-7 8 -7.5 24.5t-0.5 17.5q-2 8 -9.5 20t-22 28t-42.5 27t-63 11q-79 0 -135 -49t-56 -139q0 -93 56 -157t137 -64q48 0 89 25t64 67l91 -60q-43 -65 -110.5 -102.5t-142.5 -37.5 q-124 0 -211.5 93.5t-87.5 222.5z" />
<glyph unicode="&#xaa;" d="M156 311v111h715v-111h-715zM209 740q0 55 30.5 106.5t90.5 83.5q17 9 37 16t34.5 11.5t40.5 8t36.5 5t42 2.5t37 1h41.5h37h30v25q0 71 -22 105q-39 61 -131 61q-125 0 -191 -90l-71 84q101 116 275 116q86 0 151 -34.5t96 -100.5q24 -50 24 -147v-447h-129v69 q-94 -88 -218 -88q-104 0 -172.5 62.5t-68.5 150.5zM341 746q0 -45 36 -77t93 -32q87 0 156 65q30 28 38 57t8 73v36h-34q-11 0 -41 0.5t-47.5 0.5t-42.5 -2t-44 -5q-62 -11 -92 -44.5t-30 -71.5z" />
<glyph unicode="&#xab;" d="M138 470v48l311 302l79 -85l-247 -242l262 -286l-82 -82zM509 470v48l311 302l80 -85l-248 -242l262 -286l-82 -82z" />
<glyph unicode="&#xac;" d="M187 581v130h661v-389h-130v259h-531z" />
<glyph unicode="&#xad;" d="M145 576v136h737v-136h-737z" />
<glyph unicode="&#xae;" d="M28 561q0 218 146.5 371t350.5 153q100 0 191 -40.5t158 -110t106.5 -166.5t39.5 -205q0 -144 -67 -264.5t-181 -190t-248 -69.5t-248 69t-181 189.5t-67 263.5zM121 562q0 -182 119 -308.5t286 -126.5q166 0 285.5 126.5t119.5 309.5q0 182 -119 309t-285 127t-286 -127 t-120 -310zM318 272v598h193q92 0 141 -21q50 -21 78 -62.5t28 -90.5q0 -55 -33.5 -98.5t-86.5 -58.5l133 -256l-98 -14l-127 256h-134v-253h-94zM412 606h106q73 0 106 21q41 25 41 69q0 45 -46 72q-33 19 -106 19h-101v-181z" />
<glyph unicode="&#xaf;" d="M253 1158v115h519v-115h-519z" />
<glyph unicode="&#xb0;" d="M247 1033q0 113 81 194t196 81t196 -81t81 -194t-81 -194t-196 -81t-196 80.5t-81 194.5zM373 1035q0 -68 45 -116t108 -48t108 48t45 117q0 68 -45 116t-108 48t-108 -48t-45 -117z" />
<glyph unicode="&#xb1;" d="M92 702v125h362v350h129v-350h350v-125h-350v-384h-129v384h-362zM94 35v129h843v-129h-843z" />
<glyph unicode="&#xb2;" d="M228 1135q45 80 126 125t175 45q120 0 196.5 -67t76.5 -162q0 -103 -95 -191q-30 -28 -86 -67.5t-114.5 -86t-108.5 -102.5h373q11 0 21 9q13 13 28 9v-129h-573v90q40 55 93 109.5t87.5 83.5t87 69.5t58.5 45.5q51 42 78.5 79t27.5 80q0 51 -42 88t-112 37 q-56 0 -104.5 -25t-77.5 -62q-6 -8 -11 -21.5t-9 -20.5z" />
<glyph unicode="&#xb3;" d="M230 647l95 106q9 -9 14 -28t15 -29q11 -11 27 -23t57 -28t85 -16q75 0 128 39t53 94q0 17 -6.5 34t-24 36t-56 31t-93.5 12q-21 0 -61 -4v103q26 -2 41 -2q91 0 130.5 31t39.5 74q0 48 -43 84.5t-110 36.5q-52 0 -103 -25t-87 -70l-75 76q52 61 123 94t149 33 q113 0 190.5 -65t77.5 -155q0 -56 -32 -99.5t-84 -60.5q65 -11 108 -61t43 -114q0 -99 -93 -168t-217 -69q-84 0 -159.5 35t-131.5 98z" />
<glyph unicode="&#xb4;" d="M417 1131l180 301l129 -87l-206 -276z" />
<glyph unicode="&#xb5;" d="M49 -341q1 112 21 366t20 389v521h134v-555q0 -114 31 -178q26 -54 71.5 -84t95.5 -30q56 0 106 36t77 98q26 60 26 170v543h131v-698q0 -69 17 -100q22 -40 64 -40q31 0 59 24.5t41 49.5l13 25l55 -104q-32 -49 -79 -81t-101 -32q-64 0 -112 46t-56 113 q-35 -73 -103.5 -117t-147.5 -44q-75 0 -138 39.5t-95 107.5q0 -311 -2 -465h-128z" />
<glyph unicode="&#xb6;" d="M131 1015q0 97 55 179.5t155 125.5q46 20 102.5 30t92.5 11.5t100 1.5h257v-1503h-119v1386h-155v-1386h-122v799q-155 10 -260.5 113.5t-105.5 242.5z" />
<glyph unicode="&#xb7;" d="M368 678q0 48 35.5 82.5t85.5 34.5t85.5 -34.5t35.5 -82.5t-35.5 -83t-85.5 -35t-85.5 34.5t-35.5 83.5z" />
<glyph unicode="&#xb8;" d="M322 -286l51 85q90 -73 203 -73q53 0 73.5 15.5t20.5 34.5q0 22 -22 36q-20 13 -75 13h-60l23 175h88l-11 -97l34 -2q51 -2 79 -16q61 -30 61 -95q0 -60 -59 -106t-164 -46q-134 0 -242 76z" />
<glyph unicode="&#xb9;" d="M249 1145l274 151h89v-778h-131v615l-198 -51z" />
<glyph unicode="&#xba;" d="M156 311v111h715v-111h-715zM196 885q0 171 94 280t226 109q57 0 109 -23t94.5 -66.5t68 -114.5t25.5 -160q0 -95 -27 -171t-72 -121.5t-99 -69t-112 -23.5q-127 0 -217 99t-90 261zM320 895q0 -120 55.5 -186t130.5 -66q74 0 129.5 64.5t55.5 187.5q0 125 -54.5 194.5 t-130.5 69.5t-131 -69.5t-55 -194.5z" />
<glyph unicode="&#xbb;" d="M138 207l261 286l-247 242l80 85l311 -302v-48l-324 -345zM509 207l262 286l-248 242l80 85l311 -302v-48l-324 -345z" />
<glyph unicode="&#xbc;" d="M10 1267l219 120h70v-622h-104v492l-159 -41zM156 -34l641 1395l97 -55l-643 -1393zM483 17v58l328 420h63v-402h103v-78h-103v-158h-93v160h-298zM590 93h192v242z" />
<glyph unicode="&#xbd;" d="M10 1267l219 120h70v-622h-104v492l-159 -41zM156 -34l641 1395l97 -55l-643 -1393zM538 344q36 64 101 100t140 36q96 0 157.5 -53.5t61.5 -129.5q0 -82 -77 -152q-24 -22 -69 -54t-91.5 -69t-86.5 -82h298q10 0 18 7q11 11 22 7v-103h-458v72q32 44 74.5 87.5 t69.5 66.5t69.5 56t46.5 36q85 69 85 127q0 41 -33.5 70.5t-89.5 29.5q-45 0 -83.5 -20t-62.5 -49q-5 -6 -8.5 -17t-6.5 -17z" />
<glyph unicode="&#xbe;" d="M23 873l76 85q7 -7 11 -22.5t12 -23.5q60 -53 136 -53q60 0 102.5 31t42.5 75q0 14 -5.5 27.5t-19 28.5t-44.5 24.5t-75 9.5q-25 0 -49 -3v82q11 -1 32 -1q73 0 105 25t32 59q0 38 -34.5 67.5t-88.5 29.5q-42 0 -82.5 -20t-69.5 -56l-60 60q41 49 98 75.5t119 26.5 q90 0 152.5 -52t62.5 -124q0 -45 -25.5 -80t-66.5 -48q52 -9 86 -48.5t34 -91.5q0 -79 -74 -134t-174 -55q-67 0 -128 28t-105 78zM166 -34l642 1395l97 -55l-643 -1393zM483 17v58l328 420h63v-402h103v-78h-103v-158h-93v160h-298zM590 93h192v242z" />
<glyph unicode="&#xbf;" d="M138 335q0 46 11 87.5t25.5 69.5t40.5 58t42.5 45t45.5 38.5t38 31.5q57 51 73 96.5t16 111.5v85h134v-85q0 -82 -17 -138.5t-79 -124.5q-7 -8 -39.5 -41t-48 -52t-38 -52t-32.5 -68t-10 -73q0 -91 61.5 -154t153.5 -63q78 0 153 48t124 129l104 -97 q-66 -101 -171.5 -157.5t-222.5 -56.5q-167 0 -265.5 105.5t-98.5 256.5zM371 1245q0 48 36 83t86 35t85.5 -34.5t35.5 -83.5q0 -48 -35.5 -82.5t-85.5 -34.5t-86 34.5t-36 82.5z" />
<glyph unicode="&#xc0;" d="M30 -2l451 1301h16l493 -1299h-149l-141 373h-405l-124 -375h-141zM290 1478l81 143l313 -184l-48 -85zM323 484h345l-180 486z" />
<glyph unicode="&#xc1;" d="M30 -2l451 1301h16l493 -1299h-149l-141 373h-405l-124 -375h-141zM318 1437l313 184l81 -143l-346 -126zM323 484h345l-180 486z" />
<glyph unicode="&#xc2;" d="M30 -2l451 1301h16l493 -1299h-149l-141 373h-405l-124 -375h-141zM209 1417l268 204h44l253 -200l-67 -78l-212 145l-228 -139zM323 484h345l-180 486z" />
<glyph unicode="&#xc3;" d="M30 -2l451 1301h16l493 -1299h-149l-141 373h-405l-124 -375h-141zM177 1465q112 177 231 177q38 0 75 -18.5t52 -32t37 -36.5q61 -65 103 -65q15 0 27 4.5t24.5 17t20 21.5t23.5 32t24 33l76 -82q-60 -75 -105 -110t-98 -35q-40 0 -78.5 24t-64.5 53.5t-58.5 53.5 t-62.5 24q-37 0 -64 -28t-70 -98zM323 484h345l-180 486z" />
<glyph unicode="&#xc4;" d="M30 -2l451 1301h16l493 -1299h-149l-141 373h-405l-124 -375h-141zM207 1512q0 43 30 73t73 30t73.5 -30t30.5 -73t-30.5 -73t-73.5 -30t-73 30t-30 73zM323 484h345l-180 486zM573 1512q0 43 30 73t72 30t72.5 -30t30.5 -73t-30.5 -73t-72.5 -30t-72 30t-30 73z" />
<glyph unicode="&#xc5;" d="M30 -2l440 1270q-71 8 -118.5 59.5t-47.5 120.5q0 74 54.5 127t132.5 53t133 -53t55 -127q0 -70 -49.5 -122t-121.5 -58l482 -1268h-149l-141 373h-405l-124 -375h-141zM323 484h345l-180 486zM408 1449q0 -39 25 -66.5t60 -27.5t60 27.5t25 66.5t-25 66.5t-60 27.5 t-60 -27t-25 -67z" />
<glyph unicode="&#xc6;" d="M9 0l401 1278h582v-127h-356l4 -419h299v-131h-297l3 -474h341v-127h-470v346h-267l-109 -346h-131zM279 465h237v686h-23z" />
<glyph unicode="&#xc7;" d="M83 631q0 147 32 264t81.5 188.5t115.5 119t129 66t127 18.5q127 0 233.5 -68.5t158.5 -184.5l-136 -67q-10 7 -10 20q0 3 0.5 8t0.5 7q0 10 -7 22q-40 68 -105 108t-139 40q-142 0 -241.5 -142.5t-99.5 -386.5q0 -249 102.5 -395t250.5 -146q75 0 145.5 42t114.5 114 l106 -69q-52 -86 -136.5 -140.5t-183.5 -66.5l-9 -79l34 -2q51 -2 79 -16q61 -30 61 -95q0 -60 -59 -106t-164 -46q-134 0 -242 76l51 85q90 -73 203 -73q53 0 73.5 15.5t20.5 34.5q0 22 -22 36q-20 13 -75 13h-60l20 155q-65 5 -125.5 29t-120.5 74t-104.5 122t-72 181.5 t-27.5 244.5z" />
<glyph unicode="&#xc8;" d="M120 0v1278h783v-127h-647v-419h534v-131h-534v-474h642v-127h-778zM290 1478l81 143l313 -184l-48 -85z" />
<glyph unicode="&#xc9;" d="M120 0v1278h783v-127h-647v-419h534v-131h-534v-474h642v-127h-778zM353 1437l313 184l82 -143l-347 -126z" />
<glyph unicode="&#xca;" d="M120 0v1278h783v-127h-647v-419h534v-131h-534v-474h642v-127h-778zM226 1417l269 204h44l253 -200l-67 -78l-212 145l-228 -139z" />
<glyph unicode="&#xcb;" d="M120 0v1278h783v-127h-647v-419h534v-131h-534v-474h642v-127h-778zM221 1512q0 43 30 73t73 30t73.5 -30t30.5 -73t-30.5 -73t-73.5 -30t-73 30t-30 73zM587 1512q0 43 30 73t72 30t72.5 -30t30.5 -73t-30.5 -73t-72.5 -30t-72 30t-30 73z" />
<glyph unicode="&#xcc;" d="M166 -2v120h251v1038h-237v120h633v-120h-253v-1039h265v-119h-659zM290 1478l81 143l313 -184l-48 -85z" />
<glyph unicode="&#xcd;" d="M166 -2v120h251v1038h-237v120h633v-120h-253v-1039h265v-119h-659zM353 1437l313 184l82 -143l-347 -126z" />
<glyph unicode="&#xce;" d="M166 -2v120h251v1038h-237v120h633v-120h-253v-1039h265v-119h-659zM207 1417l268 204h45l252 -200l-67 -78l-212 145l-228 -139z" />
<glyph unicode="&#xcf;" d="M166 -2v120h251v1038h-237v120h633v-120h-253v-1039h265v-119h-659zM214 1512q0 43 30 73t73 30t73.5 -30t30.5 -73t-30.5 -73t-73.5 -30t-73 30t-30 73zM580 1512q0 43 30 73t72 30t72.5 -30t30.5 -73t-30.5 -73t-72.5 -30t-72 30t-30 73z" />
<glyph unicode="&#xd0;" d="M62 617v118h99v541h286q94 0 160 -15t128 -61q110 -81 165 -231t55 -324q0 -210 -79 -375t-222 -232q-85 -40 -232 -40h-261v619h-99zM293 117h122q68 0 116 9.5t97 42.5q91 61 140 183t49 276q0 115 -26.5 222.5t-81.5 182.5q-31 42 -66 69t-74 37.5t-65.5 13.5t-65.5 3 h-145v-421h214v-118h-214v-500z" />
<glyph unicode="&#xd1;" d="M103 0v1276h139l536 -945v947h152q2 -10 -6 -26q-8 -14 -8 -29v-1225h-114l-562 1006v-1004h-137zM186 1465q112 177 231 177q38 0 75 -18.5t52 -32t37 -36.5q30 -32 53 -48.5t49 -16.5q15 0 27 4.5t24.5 17t20 21.5t23.5 32t24 33l76 -82q-61 -75 -105 -110t-97 -35 q-40 0 -78.5 24t-64.5 53.5t-58.5 53.5t-62.5 24q-37 0 -64.5 -28.5t-70.5 -97.5z" />
<glyph unicode="&#xd2;" d="M60 640q0 144 30 259.5t76.5 187t109 119t122.5 66t121 18.5q110 0 208.5 -61t159.5 -179q78 -152 78 -415q0 -255 -76 -408q-60 -122 -159.5 -184t-209.5 -62q-62 0 -123 20t-123 68.5t-108.5 121.5t-76 189t-29.5 260zM201 659q0 -117 19.5 -211.5t51.5 -154.5 t74.5 -100t86 -56.5t88.5 -16.5q70 0 136 42.5t108 130.5q57 121 57 324q0 213 -50 337q-41 103 -112 152.5t-147 49.5q-43 0 -84.5 -14.5t-83 -51.5t-73 -91.5t-51.5 -142.5t-20 -197zM290 1478l81 143l313 -184l-48 -85z" />
<glyph unicode="&#xd3;" d="M60 640q0 144 30 259.5t76.5 187t109 119t122.5 66t121 18.5q110 0 208.5 -61t159.5 -179q78 -152 78 -415q0 -255 -76 -408q-60 -122 -159.5 -184t-209.5 -62q-62 0 -123 20t-123 68.5t-108.5 121.5t-76 189t-29.5 260zM201 659q0 -117 19.5 -211.5t51.5 -154.5 t74.5 -100t86 -56.5t88.5 -16.5q70 0 136 42.5t108 130.5q57 121 57 324q0 213 -50 337q-41 103 -112 152.5t-147 49.5q-43 0 -84.5 -14.5t-83 -51.5t-73 -91.5t-51.5 -142.5t-20 -197zM353 1437l313 184l82 -143l-347 -126z" />
<glyph unicode="&#xd4;" d="M60 640q0 144 30 259.5t76.5 187t109 119t122.5 66t121 18.5q110 0 208.5 -61t159.5 -179q78 -152 78 -415q0 -255 -76 -408q-60 -122 -159.5 -184t-209.5 -62q-62 0 -123 20t-123 68.5t-108.5 121.5t-76 189t-29.5 260zM201 659q0 -117 19.5 -211.5t51.5 -154.5 t74.5 -100t86 -56.5t88.5 -16.5q70 0 136 42.5t108 130.5q57 121 57 324q0 213 -50 337q-41 103 -112 152.5t-147 49.5q-43 0 -84.5 -14.5t-83 -51.5t-73 -91.5t-51.5 -142.5t-20 -197zM232 1417l268 204h44l253 -200l-67 -78l-212 145l-228 -139z" />
<glyph unicode="&#xd5;" d="M60 640q0 144 30 259.5t76.5 187t109 119t122.5 66t121 18.5q110 0 208.5 -61t159.5 -179q78 -152 78 -415q0 -255 -76 -408q-60 -122 -159.5 -184t-209.5 -62q-62 0 -123 20t-123 68.5t-108.5 121.5t-76 189t-29.5 260zM186 1465q112 177 231 177q38 0 75 -18.5t52 -32 t37 -36.5q30 -32 53 -48.5t49 -16.5q15 0 27 4.5t24.5 17t20 21.5t23.5 32t24 33l76 -82q-61 -75 -105 -110t-97 -35q-40 0 -78.5 24t-64.5 53.5t-58.5 53.5t-62.5 24q-37 0 -64.5 -28.5t-70.5 -97.5zM201 659q0 -117 19.5 -211.5t51.5 -154.5t74.5 -100t86 -56.5 t88.5 -16.5q70 0 136 42.5t108 130.5q57 121 57 324q0 213 -50 337q-41 103 -112 152.5t-147 49.5q-43 0 -84.5 -14.5t-83 -51.5t-73 -91.5t-51.5 -142.5t-20 -197z" />
<glyph unicode="&#xd6;" d="M60 640q0 144 30 259.5t76.5 187t109 119t122.5 66t121 18.5q110 0 208.5 -61t159.5 -179q78 -152 78 -415q0 -255 -76 -408q-60 -122 -159.5 -184t-209.5 -62q-62 0 -123 20t-123 68.5t-108.5 121.5t-76 189t-29.5 260zM201 659q0 -117 19.5 -211.5t51.5 -154.5 t74.5 -100t86 -56.5t88.5 -16.5q70 0 136 42.5t108 130.5q57 121 57 324q0 213 -50 337q-41 103 -112 152.5t-147 49.5q-43 0 -84.5 -14.5t-83 -51.5t-73 -91.5t-51.5 -142.5t-20 -197zM221 1512q0 43 30 73t73 30t73.5 -30t30.5 -73t-30.5 -73t-73.5 -30t-73 30t-30 73z M587 1512q0 43 30 73t72 30t72.5 -30t30.5 -73t-30.5 -73t-72.5 -30t-72 30t-30 73z" />
<glyph unicode="&#xd7;" d="M173 396l258 268l-258 273l97 93l255 -269l258 269l97 -90l-265 -274l260 -275l-96 -94l-258 273l-256 -264z" />
<glyph unicode="&#xd8;" d="M60 640q0 144 30 259.5t76.5 187t109 119t122.5 66t121 18.5q131 0 237 -81l94 177l110 -59l-113 -211q21 -28 40 -66q78 -152 78 -415q0 -255 -76 -408q-60 -122 -159.5 -184t-209.5 -62q-130 0 -238 81l-102 -191l-106 55l120 225q-134 175 -134 489zM201 659 q0 -223 70 -363l418 786q-78 74 -176 74q-43 0 -84.5 -14.5t-83 -51.5t-73 -91.5t-51.5 -142.5t-20 -197zM351 189q76 -69 170 -69q70 0 136 42.5t108 130.5q57 121 57 324q0 213 -50 337l-5 13z" />
<glyph unicode="&#xd9;" d="M103 440v836h160q2 -6 2 -10q0 -7 -13 -28q-8 -11 -8 -27v-773q0 -121 31 -188q34 -72 99.5 -111.5t143.5 -39.5q77 0 143 38.5t100 110.5q33 69 33 196v832h136v-829q0 -87 -9.5 -149t-41.5 -122q-53 -97 -151 -148t-213 -51q-117 0 -214 51t-149 147q-32 59 -40.5 119 t-8.5 146zM290 1478l81 143l313 -184l-48 -85z" />
<glyph unicode="&#xda;" d="M103 440v836h160q2 -6 2 -10q0 -7 -13 -28q-8 -11 -8 -27v-773q0 -121 31 -188q34 -72 99.5 -111.5t143.5 -39.5q77 0 143 38.5t100 110.5q33 69 33 196v832h136v-829q0 -87 -9.5 -149t-41.5 -122q-53 -97 -151 -148t-213 -51q-117 0 -214 51t-149 147q-32 59 -40.5 119 t-8.5 146zM353 1437l313 184l82 -143l-347 -126z" />
<glyph unicode="&#xdb;" d="M103 440v836h160q2 -6 2 -10q0 -7 -13 -28q-8 -11 -8 -27v-773q0 -121 31 -188q34 -72 99.5 -111.5t143.5 -39.5q77 0 143 38.5t100 110.5q33 69 33 196v832h136v-829q0 -87 -9.5 -149t-41.5 -122q-53 -97 -151 -148t-213 -51q-117 0 -214 51t-149 147q-32 59 -40.5 119 t-8.5 146zM232 1417l268 204h44l253 -200l-67 -78l-212 145l-228 -139z" />
<glyph unicode="&#xdc;" d="M103 440v836h160q2 -6 2 -10q0 -7 -13 -28q-8 -11 -8 -27v-773q0 -121 31 -188q34 -72 99.5 -111.5t143.5 -39.5q77 0 143 38.5t100 110.5q33 69 33 196v832h136v-829q0 -87 -9.5 -149t-41.5 -122q-53 -97 -151 -148t-213 -51q-117 0 -214 51t-149 147q-32 59 -40.5 119 t-8.5 146zM239 1512q0 43 30 73t73 30t73 -30t30 -73t-30 -73t-73 -30t-73 30t-30 73zM604 1512q0 43 30.5 73t72.5 30t72 -30t30 -73t-30 -73t-72 -30t-72.5 30t-30.5 73z" />
<glyph unicode="&#xdd;" d="M58 1278h163l313 -621l283 619h152l-363 -772v-504h-155v504zM353 1437l313 184l82 -143l-347 -126z" />
<glyph unicode="&#xde;" d="M120 0v1276h161q1 -3 1 -8q0 -8 -11 -27q-6 -9 -6 -21v-184h244q76 0 131.5 -8t109.5 -36q88 -45 135.5 -130.5t47.5 -185.5t-47 -183.5t-133 -127.5q-53 -26 -106.5 -34t-126.5 -8h-255v-323h-145zM265 449h260q97 0 148 26q54 27 84 80t30 115q0 64 -31.5 119.5 t-89.5 84.5q-54 27 -157 27h-244v-452z" />
<glyph unicode="&#xdf;" d="M113 0v866q0 60 1.5 96t11.5 89t30 97q46 105 136.5 163.5t197.5 58.5q152 0 261.5 -107t109.5 -254q0 -88 -43.5 -161.5t-119.5 -112.5q115 -36 184 -136.5t69 -228.5q0 -166 -109 -278.5t-267 -112.5q-119 0 -213 63l73 115q59 -47 138 -47q99 0 170.5 75t71.5 185 q0 79 -37.5 146t-97.5 104q-66 41 -180 41h-62v117h59q58 0 94 16q58 26 94 86.5t36 132.5q0 101 -65.5 170t-157.5 69q-52 0 -101.5 -26t-84.5 -77q-27 -40 -41 -93t-16 -89.5t-2 -96.5v-870h-140z" />
<glyph unicode="&#xe0;" d="M100 242q0 83 54.5 155.5t160.5 111.5q55 20 133.5 30t124 11t146.5 1h30v34q0 36 -1 54.5t-8 50.5t-21 56q-54 90 -193 90q-168 0 -268 -104l-72 93q127 131 333 131q110 0 195.5 -40t130.5 -115q29 -49 37.5 -99.5t8.5 -121.5v-580h-140v103q-153 -126 -336 -126 q-141 0 -228 78.5t-87 186.5zM249 252q0 -66 53.5 -114t142.5 -48q81 0 144.5 35t101.5 75q29 31 44 66t17.5 56t2.5 54v62h-34q-10 0 -73 0.5t-89 0t-70.5 -4t-74.5 -10.5q-82 -20 -123.5 -68t-41.5 -104zM369 1345l129 87l181 -301l-103 -62z" />
<glyph unicode="&#xe1;" d="M100 242q0 83 54.5 155.5t160.5 111.5q55 20 133.5 30t124 11t146.5 1h30v34q0 36 -1 54.5t-8 50.5t-21 56q-54 90 -193 90q-168 0 -268 -104l-72 93q127 131 333 131q110 0 195.5 -40t130.5 -115q29 -49 37.5 -99.5t8.5 -121.5v-580h-140v103q-153 -126 -336 -126 q-141 0 -228 78.5t-87 186.5zM249 252q0 -66 53.5 -114t142.5 -48q81 0 144.5 35t101.5 75q29 31 44 66t17.5 56t2.5 54v62h-34q-10 0 -73 0.5t-89 0t-70.5 -4t-74.5 -10.5q-82 -20 -123.5 -68t-41.5 -104zM417 1131l180 301l129 -87l-206 -276z" />
<glyph unicode="&#xe2;" d="M100 242q0 83 54.5 155.5t160.5 111.5q55 20 133.5 30t124 11t146.5 1h30v34q0 36 -1 54.5t-8 50.5t-21 56q-54 90 -193 90q-168 0 -268 -104l-72 93q127 131 333 131q110 0 195.5 -40t130.5 -115q29 -49 37.5 -99.5t8.5 -121.5v-580h-140v103q-153 -126 -336 -126 q-141 0 -228 78.5t-87 186.5zM249 252q0 -66 53.5 -114t142.5 -48q81 0 144.5 35t101.5 75q29 31 44 66t17.5 56t2.5 54v62h-34q-10 0 -73 0.5t-89 0t-70.5 -4t-74.5 -10.5q-82 -20 -123.5 -68t-41.5 -104zM288 1115l228 288h44l227 -290l-96 -70l-159 210l-166 -208z" />
<glyph unicode="&#xe3;" d="M100 242q0 83 54.5 155.5t160.5 111.5q55 20 133.5 30t124 11t146.5 1h30v34q0 36 -1 54.5t-8 50.5t-21 56q-54 90 -193 90q-168 0 -268 -104l-72 93q127 131 333 131q110 0 195.5 -40t130.5 -115q29 -49 37.5 -99.5t8.5 -121.5v-580h-140v103q-153 -126 -336 -126 q-141 0 -228 78.5t-87 186.5zM205 1207q112 177 232 177q38 0 75.5 -19t51.5 -32t37 -37q60 -64 102 -64q15 0 27 4.5t24.5 17t20 21.5t23.5 32t24 33l76 -82q-61 -75 -105 -110t-97 -35q-33 0 -64 16t-55.5 38.5t-47 45.5t-48 39t-50.5 16q-37 0 -64 -28t-70 -98zM249 252 q0 -66 53.5 -114t142.5 -48q81 0 144.5 35t101.5 75q29 31 44 66t17.5 56t2.5 54v62h-34q-10 0 -73 0.5t-89 0t-70.5 -4t-74.5 -10.5q-82 -20 -123.5 -68t-41.5 -104z" />
<glyph unicode="&#xe4;" d="M100 242q0 83 54.5 155.5t160.5 111.5q55 20 133.5 30t124 11t146.5 1h30v34q0 36 -1 54.5t-8 50.5t-21 56q-54 90 -193 90q-168 0 -268 -104l-72 93q127 131 333 131q110 0 195.5 -40t130.5 -115q29 -49 37.5 -99.5t8.5 -121.5v-580h-140v103q-153 -126 -336 -126 q-141 0 -228 78.5t-87 186.5zM249 252q0 -66 53.5 -114t142.5 -48q81 0 144.5 35t101.5 75q29 31 44 66t17.5 56t2.5 54v62h-34q-10 0 -73 0.5t-89 0t-70.5 -4t-74.5 -10.5q-82 -20 -123.5 -68t-41.5 -104zM256 1258q0 43 30.5 73t73.5 30t73 -30t30 -73t-30 -73.5 t-73 -30.5t-73.5 30.5t-30.5 73.5zM622 1258q0 43 30.5 73t72.5 30t72 -30t30 -73t-30 -73.5t-72 -30.5t-72.5 30.5t-30.5 73.5z" />
<glyph unicode="&#xe5;" d="M100 242q0 83 54.5 155.5t160.5 111.5q55 20 133.5 30t124 11t146.5 1h30v34q0 36 -1 54.5t-8 50.5t-21 56q-54 90 -193 90q-168 0 -268 -104l-72 93q127 131 333 131q110 0 195.5 -40t130.5 -115q29 -49 37.5 -99.5t8.5 -121.5v-580h-140v103q-153 -126 -336 -126 q-141 0 -228 78.5t-87 186.5zM249 252q0 -66 53.5 -114t142.5 -48q81 0 144.5 35t101.5 75q29 31 44 66t17.5 56t2.5 54v62h-34q-10 0 -73 0.5t-89 0t-70.5 -4t-74.5 -10.5q-82 -20 -123.5 -68t-41.5 -104zM337 1239q0 74 55 127t133 53t132.5 -53t54.5 -127t-54.5 -127 t-132.5 -53t-133 53t-55 127zM442 1240q0 -39 25 -66t60 -27t60 27.5t25 66.5t-25 66t-60 27t-60 -27t-25 -67z" />
<glyph unicode="&#xe6;" d="M21 253q0 84 47.5 160t139.5 117q76 34 199 39l45 2v53q0 68 -13 105q-19 51 -59.5 81.5t-88.5 30.5q-43 0 -84.5 -23.5t-70.5 -64.5l-72 90q43 54 105 83.5t131 29.5q74 0 134.5 -34t93.5 -93q34 59 92.5 93t123.5 34q59 0 114.5 -29.5t91.5 -89.5q26 -41 38.5 -97 t14 -90.5t1.5 -99.5v-78l-426 -18v-95q0 -89 21 -135q26 -59 78 -93t113 -34q95 0 150 74l73 -84q-44 -52 -105.5 -81t-128.5 -29q-78 0 -147 37.5t-111 103.5q-33 -65 -95 -103t-136 -38q-111 0 -190 80.5t-79 195.5zM152 262q0 -66 44.5 -113t107.5 -47q44 0 81 25t54 71 q5 14 8 29t4 34t1.5 31.5t0 39t-0.5 39.5v78l-44 -2q-108 -4 -158 -30q-48 -24 -73 -66t-25 -89zM578 571l307 12v41q0 83 -19 127q-19 43 -52 67t-72 24q-74 0 -125 -77q-39 -59 -39 -159v-35z" />
<glyph unicode="&#xe7;" d="M115 468q0 211 132 348.5t338 137.5q111 0 202.5 -45.5t147.5 -127.5l-104 -122q-9 7 -9.5 24.5t-3.5 23.5q-2 5 -11.5 17t-30.5 30.5t-47 34.5t-67 28t-86 12q-132 0 -220.5 -95t-88.5 -251q0 -163 91.5 -267.5t229.5 -104.5q71 0 136 29.5t112 83.5l85 -99 q-120 -129 -299 -146l-9 -76l34 -2q51 -2 79 -16q61 -30 61 -95q0 -60 -59 -106t-164 -46q-134 0 -242 76l51 85q90 -73 203 -73q53 0 73.5 15.5t20.5 34.5q0 22 -22 36q-20 13 -75 13h-60l20 154q-183 16 -300.5 152.5t-117.5 336.5z" />
<glyph unicode="&#xe8;" d="M100 457q0 124 35.5 222t96 157.5t136.5 90.5t162 31q61 0 117 -17t108.5 -54t91 -104t53.5 -157q15 -91 7 -179h-664q3 -80 25.5 -143t54.5 -101t74.5 -62.5t82 -33.5t80.5 -9q148 0 242 105l82 -79q-59 -71 -146 -108t-189 -37q-96 0 -177.5 31.5t-142 90.5t-95 150.5 t-34.5 205.5zM247 560h515q14 115 -58 200t-185 85q-41 0 -81.5 -14t-80.5 -45t-70 -89t-40 -137zM369 1345l129 87l181 -301l-103 -62z" />
<glyph unicode="&#xe9;" d="M100 457q0 124 35.5 222t96 157.5t136.5 90.5t162 31q61 0 117 -17t108.5 -54t91 -104t53.5 -157q15 -91 7 -179h-664q3 -80 25.5 -143t54.5 -101t74.5 -62.5t82 -33.5t80.5 -9q148 0 242 105l82 -79q-59 -71 -146 -108t-189 -37q-96 0 -177.5 31.5t-142 90.5t-95 150.5 t-34.5 205.5zM247 560h515q14 115 -58 200t-185 85q-41 0 -81.5 -14t-80.5 -45t-70 -89t-40 -137zM417 1131l180 301l129 -87l-206 -276z" />
<glyph unicode="&#xea;" d="M100 457q0 124 35.5 222t96 157.5t136.5 90.5t162 31q61 0 117 -17t108.5 -54t91 -104t53.5 -157q15 -91 7 -179h-664q3 -80 25.5 -143t54.5 -101t74.5 -62.5t82 -33.5t80.5 -9q148 0 242 105l82 -79q-59 -71 -146 -108t-189 -37q-96 0 -177.5 31.5t-142 90.5t-95 150.5 t-34.5 205.5zM247 560h515q14 115 -58 200t-185 85q-41 0 -81.5 -14t-80.5 -45t-70 -89t-40 -137zM274 1115l228 288h44l226 -290l-95 -70l-159 210l-166 -208z" />
<glyph unicode="&#xeb;" d="M100 457q0 124 35.5 222t96 157.5t136.5 90.5t162 31q61 0 117 -17t108.5 -54t91 -104t53.5 -157q15 -91 7 -179h-664q3 -80 25.5 -143t54.5 -101t74.5 -62.5t82 -33.5t80.5 -9q148 0 242 105l82 -79q-59 -71 -146 -108t-189 -37q-96 0 -177.5 31.5t-142 90.5t-95 150.5 t-34.5 205.5zM233 1258q0 43 30.5 73t73.5 30t73 -30t30 -73t-30 -73.5t-73 -30.5t-73.5 30.5t-30.5 73.5zM247 560h515q14 115 -58 200t-185 85q-41 0 -81.5 -14t-80.5 -45t-70 -89t-40 -137zM599 1258q0 43 30.5 73t72.5 30t72 -30t30 -73t-30 -73.5t-72 -30.5t-72.5 30.5 t-30.5 73.5z" />
<glyph unicode="&#xec;" d="M205 0v118h239v699h-227v120h375v-819h219v-118h-606zM263 1345l129 87l181 -301l-103 -62z" />
<glyph unicode="&#xed;" d="M205 0v118h239v699h-227v120h375v-819h219v-118h-606zM399 1131l181 301l129 -87l-207 -276z" />
<glyph unicode="&#xee;" d="M205 0v118h239v699h-227v120h375v-819h219v-118h-606zM232 1115l228 288h44l226 -290l-95 -70l-160 210l-166 -208z" />
<glyph unicode="&#xef;" d="M205 0v118h239v699h-227v120h375v-819h219v-118h-606zM209 1258q0 43 30 73t73 30t73 -30t30 -73t-30 -73.5t-73 -30.5t-73 30.5t-30 73.5zM574 1258q0 43 30.5 73t72.5 30t72 -30t30 -73t-30 -73.5t-72 -30.5t-72.5 30.5t-30.5 73.5z" />
<glyph unicode="&#xf0;" d="M83 456q0 208 127 354.5t299 146.5q147 0 246 -107q-61 157 -176 281l-261 -74l-37 97l213 58q-95 80 -209 131l166 34q94 -53 178 -128l221 61l35 -92l-175 -50q233 -265 233 -650q0 -218 -80 -351q-55 -92 -145 -142t-194 -50q-181 0 -311 137t-130 344zM239 476 q0 -171 83.5 -272t200.5 -101q47 0 91.5 19t86.5 59.5t67.5 116.5t25.5 177t-27 174.5t-70 111t-87 54t-88 16.5q-53 0 -102.5 -22t-90.5 -64.5t-65.5 -112t-24.5 -156.5z" />
<glyph unicode="&#xf1;" d="M140 0v935h150v-164q55 82 137.5 134.5t173.5 52.5q81 0 147.5 -43.5t101.5 -121.5q34 -77 34 -226v-567h-145v564q0 46 -1.5 72t-13.5 66.5t-36 68.5q-50 59 -127 59q-66 0 -128 -41.5t-97 -88.5q-27 -37 -36.5 -73t-9.5 -88v-539h-150zM175 1207q112 177 232 177 q38 0 75.5 -19t51.5 -32t37 -37q60 -64 102 -64q15 0 27 4.5t24.5 17t20 21.5t23.5 32t24 33l76 -82q-61 -75 -105 -110t-97 -35q-33 0 -64 16t-55.5 38.5t-47 45.5t-48 39t-50.5 16q-37 0 -64 -28t-70 -98z" />
<glyph unicode="&#xf2;" d="M83 461q0 106 36 199t96 157.5t141.5 101.5t169.5 37q81 0 155 -32t132.5 -92t93.5 -155.5t35 -212.5q0 -113 -34.5 -206.5t-93 -154.5t-134 -94.5t-159.5 -33.5q-88 0 -168 36.5t-139.5 99.5t-95 154.5t-35.5 195.5zM239 473q0 -167 83 -269t200 -102q111 0 191.5 94 t80.5 261q0 180 -83 277t-195 97q-114 0 -195.5 -97t-81.5 -261zM369 1345l129 87l181 -301l-103 -62z" />
<glyph unicode="&#xf3;" d="M83 461q0 106 36 199t96 157.5t141.5 101.5t169.5 37q81 0 155 -32t132.5 -92t93.5 -155.5t35 -212.5q0 -113 -34.5 -206.5t-93 -154.5t-134 -94.5t-159.5 -33.5q-88 0 -168 36.5t-139.5 99.5t-95 154.5t-35.5 195.5zM239 473q0 -167 83 -269t200 -102q111 0 191.5 94 t80.5 261q0 180 -83 277t-195 97q-114 0 -195.5 -97t-81.5 -261zM417 1131l180 301l129 -87l-206 -276z" />
<glyph unicode="&#xf4;" d="M83 461q0 106 36 199t96 157.5t141.5 101.5t169.5 37q81 0 155 -32t132.5 -92t93.5 -155.5t35 -212.5q0 -113 -34.5 -206.5t-93 -154.5t-134 -94.5t-159.5 -33.5q-88 0 -168 36.5t-139.5 99.5t-95 154.5t-35.5 195.5zM239 473q0 -167 83 -269t200 -102q111 0 191.5 94 t80.5 261q0 180 -83 277t-195 97q-114 0 -195.5 -97t-81.5 -261zM274 1115l228 288h44l226 -290l-95 -70l-159 210l-166 -208z" />
<glyph unicode="&#xf5;" d="M83 461q0 106 36 199t96 157.5t141.5 101.5t169.5 37q81 0 155 -32t132.5 -92t93.5 -155.5t35 -212.5q0 -113 -34.5 -206.5t-93 -154.5t-134 -94.5t-159.5 -33.5q-88 0 -168 36.5t-139.5 99.5t-95 154.5t-35.5 195.5zM186 1207q112 177 231 177q38 0 75.5 -19t51.5 -32 t37 -37q60 -64 102 -64q15 0 27 4.5t24.5 17t20 21.5t23.5 32t24 33l76 -82q-61 -75 -105 -110t-97 -35q-40 0 -78.5 24t-64.5 53.5t-58.5 53.5t-62.5 24q-37 0 -64.5 -28.5t-70.5 -97.5zM239 473q0 -167 83 -269t200 -102q111 0 191.5 94t80.5 261q0 180 -83 277t-195 97 q-114 0 -195.5 -97t-81.5 -261z" />
<glyph unicode="&#xf6;" d="M83 461q0 106 36 199t96 157.5t141.5 101.5t169.5 37q81 0 155 -32t132.5 -92t93.5 -155.5t35 -212.5q0 -113 -34.5 -206.5t-93 -154.5t-134 -94.5t-159.5 -33.5q-88 0 -168 36.5t-139.5 99.5t-95 154.5t-35.5 195.5zM230 1258q0 43 30 73t73 30t73.5 -30t30.5 -73 t-30.5 -73.5t-73.5 -30.5t-73 30.5t-30 73.5zM239 473q0 -167 83 -269t200 -102q111 0 191.5 94t80.5 261q0 180 -83 277t-195 97q-114 0 -195.5 -97t-81.5 -261zM596 1258q0 43 30 73t72 30t72.5 -30t30.5 -73t-30.5 -73.5t-72.5 -30.5t-72 30.5t-30 73.5z" />
<glyph unicode="&#xf7;" d="M145 576v136h737v-136h-737zM431 325q0 38 27 65t65 27t65 -27t27 -65t-27 -65t-65 -27t-65 27t-27 65zM431 956q0 38 27 65t65 27t65 -27t27 -65t-27 -65t-65 -27t-65 27t-27 65z" />
<glyph unicode="&#xf8;" d="M83 461q0 106 36 199t96 157.5t141.5 101.5t169.5 37q81 0 160 -34l76 140l109 -58l-81 -149q152 -137 152 -391q0 -113 -34.5 -206.5t-93 -154.5t-134 -94.5t-159.5 -33.5q-100 0 -189 46l-83 -152l-106 55l91 167q-71 66 -111 161.5t-40 208.5zM239 473q0 -148 68 -248 l315 581q-50 25 -106 25q-114 0 -195.5 -97t-81.5 -261zM397 138q61 -36 125 -36q111 0 191.5 94t80.5 261t-76 268z" />
<glyph unicode="&#xf9;" d="M127 414l2 521h148v-521q0 -136 33 -202q27 -55 75 -85t104 -30q65 0 124 39t92 100q37 68 37 185v514h149v-850q0 -54 10 -85h-155q-6 34 -4 72l2 71q-46 -77 -123.5 -121.5t-165.5 -44.5q-93 0 -172 50t-119 141q-17 38 -26 85t-10 77t-1 84zM369 1345l129 87l181 -301 l-103 -62z" />
<glyph unicode="&#xfa;" d="M127 414l2 521h148v-521q0 -136 33 -202q27 -55 75 -85t104 -30q65 0 124 39t92 100q37 68 37 185v514h149v-850q0 -54 10 -85h-155q-6 34 -4 72l2 71q-46 -77 -123.5 -121.5t-165.5 -44.5q-93 0 -172 50t-119 141q-17 38 -26 85t-10 77t-1 84zM417 1131l180 301l129 -87 l-206 -276z" />
<glyph unicode="&#xfb;" d="M127 414l2 521h148v-521q0 -136 33 -202q27 -55 75 -85t104 -30q65 0 124 39t92 100q37 68 37 185v514h149v-850q0 -54 10 -85h-155q-6 34 -4 72l2 71q-46 -77 -123.5 -121.5t-165.5 -44.5q-93 0 -172 50t-119 141q-17 38 -26 85t-10 77t-1 84zM274 1115l228 288h44 l226 -290l-95 -70l-159 210l-166 -208z" />
<glyph unicode="&#xfc;" d="M127 414l2 521h148v-521q0 -136 33 -202q27 -55 75 -85t104 -30q65 0 124 39t92 100q37 68 37 185v514h149v-850q0 -54 10 -85h-155q-6 34 -4 72l2 71q-46 -77 -123.5 -121.5t-165.5 -44.5q-93 0 -172 50t-119 141q-17 38 -26 85t-10 77t-1 84zM230 1258q0 43 30 73 t73 30t73.5 -30t30.5 -73t-30.5 -73.5t-73.5 -30.5t-73 30.5t-30 73.5zM596 1258q0 43 30 73t72 30t72.5 -30t30.5 -73t-30.5 -73.5t-72.5 -30.5t-72 30.5t-30 73.5z" />
<glyph unicode="&#xfd;" d="M46 -277l76 132q5 -4 8 -9.5t4.5 -13t3.5 -10.5q4 -8 15 -19.5t37.5 -24.5t57.5 -13q73 0 131 61q33 35 65 109l30 69l-380 931h183q1 -10 -4 -23.5t-5 -20.5q0 -4 4 -16l274 -689l179 502q52 145 70 249h154q-39 -128 -94 -271l-291 -772q-37 -99 -81 -148 q-90 -102 -234 -102q-121 0 -203 79zM417 1131l180 301l129 -87l-206 -276z" />
<glyph unicode="&#xfe;" d="M124 -341v1702h162q0 -14 -7 -32t-7 -35v-502q48 76 127 120t169 44q71 0 137 -29t121 -85.5t88 -150.5t33 -213q0 -124 -34 -222.5t-90.5 -158.5t-125 -91t-142.5 -31q-85 0 -159.5 39.5t-121.5 109.5v-465h-150zM272 511q0 -84 1 -122t7 -81t19 -73q27 -62 85.5 -95.5 t128.5 -33.5q31 0 63.5 7t73 29t71.5 57.5t52 100t21 148.5q0 97 -22 170t-52.5 112t-72 63.5t-72.5 31t-61 6.5q-71 0 -130.5 -37t-86.5 -99q-25 -58 -25 -184z" />
<glyph unicode="&#xff;" d="M46 -277l76 132q5 -4 8 -9.5t4.5 -13t3.5 -10.5q4 -8 15 -19.5t37.5 -24.5t57.5 -13q73 0 131 61q33 35 65 109l30 69l-380 931h183q1 -10 -4 -23.5t-5 -20.5q0 -4 4 -16l274 -689l179 502q52 145 70 249h154q-39 -128 -94 -271l-291 -772q-37 -99 -81 -148 q-90 -102 -234 -102q-121 0 -203 79zM230 1258q0 43 30 73t73 30t73.5 -30t30.5 -73t-30.5 -73.5t-73.5 -30.5t-73 30.5t-30 73.5zM596 1258q0 43 30 73t72 30t72.5 -30t30.5 -73t-30.5 -73.5t-72.5 -30.5t-72 30.5t-30 73.5z" />
<glyph unicode="&#x152;" d="M19 639q0 288 69 449q47 109 118 157.5t144 48.5q100 0 168 -74v58h474v-127h-347v-419h294v-131h-294v-474h341v-127h-470v64q-64 -78 -167 -78q-86 0 -164.5 63.5t-119.5 196.5q-46 144 -46 393zM150 664q0 -272 57 -412q31 -76 74.5 -108.5t85.5 -32.5q53 0 93.5 42.5 t55.5 111.5v728q-10 30 -23 58t-33.5 58t-49 48t-61.5 18q-47 0 -89.5 -41t-69.5 -121q-40 -117 -40 -349z" />
<glyph unicode="&#x153;" d="M12 484q0 193 58 301q44 83 114.5 126.5t146.5 43.5q57 0 107 -24.5t83 -69.5q39 45 93.5 69.5t114.5 24.5q78 0 146.5 -44t100.5 -133q7 -19 12 -39t8 -43.5t5 -41t2.5 -46.5t0.5 -43v-47v-43v-23h-467q1 -175 30 -240q26 -59 76.5 -88t111.5 -29q116 0 185 80l73 -88 q-108 -111 -262 -111q-132 0 -233 84q-90 -83 -203 -83q-44 0 -86.5 15t-86.5 54t-73 98q-57 119 -57 340zM136 504q0 -159 30 -252q25 -77 70 -113.5t97 -36.5q41 0 72 22t31 58q0 7 -6.5 46t-13 108t-6.5 147q0 67 4.5 124.5t9 91.5t4.5 43q0 39 -29 64t-70 25 q-45 0 -87.5 -31t-69.5 -88q-36 -76 -36 -208zM539 569h343v18q0 43 -1 64t-8 55.5t-22 59.5q-22 38 -59.5 57.5t-79.5 19.5q-46 0 -87.5 -26t-63.5 -85q-24 -58 -22 -163z" />
<glyph unicode="&#x178;" d="M58 1278h163l313 -621l283 619h152l-363 -772v-504h-155v504zM221 1512q0 43 30 73t73 30t73.5 -30t30.5 -73t-30.5 -73t-73.5 -30t-73 30t-30 73zM587 1512q0 43 30 73t72 30t72.5 -30t30.5 -73t-30.5 -73t-72.5 -30t-72 30t-30 73z" />
<glyph unicode="&#x2c6;" d="M274 1115l228 288h44l226 -290l-95 -70l-159 210l-166 -208z" />
<glyph unicode="&#x2dc;" d="M186 1207q112 177 231 177q38 0 75.5 -19t51.5 -32t37 -37q60 -64 102 -64q15 0 27 4.5t24.5 17t20 21.5t23.5 32t24 33l76 -82q-61 -75 -105 -110t-97 -35q-40 0 -78.5 24t-64.5 53.5t-58.5 53.5t-62.5 24q-37 0 -64.5 -28.5t-70.5 -97.5z" />
<glyph unicode="&#x2000;" horiz-adv-x="821" />
<glyph unicode="&#x2001;" horiz-adv-x="1642" />
<glyph unicode="&#x2002;" horiz-adv-x="821" />
<glyph unicode="&#x2003;" horiz-adv-x="1642" />
<glyph unicode="&#x2004;" horiz-adv-x="547" />
<glyph unicode="&#x2005;" horiz-adv-x="410" />
<glyph unicode="&#x2006;" horiz-adv-x="273" />
<glyph unicode="&#x2007;" horiz-adv-x="273" />
<glyph unicode="&#x2008;" horiz-adv-x="205" />
<glyph unicode="&#x2009;" horiz-adv-x="328" />
<glyph unicode="&#x200a;" horiz-adv-x="91" />
<glyph unicode="&#x2010;" d="M145 576v136h737v-136h-737z" />
<glyph unicode="&#x2011;" d="M145 576v136h737v-136h-737z" />
<glyph unicode="&#x2012;" d="M145 576v136h737v-136h-737z" />
<glyph unicode="&#x2013;" horiz-adv-x="1311" d="M145 576v136h1024v-136h-1024z" />
<glyph unicode="&#x2014;" horiz-adv-x="2335" d="M145 576v136h2048v-136h-2048z" />
<glyph unicode="&#x2018;" d="M373 921q0 164 218 385l70 -62q-59 -54 -103 -127q-30 -48 -30 -86q0 -19 9.5 -35t16.5 -21.5t22 -15.5t24 -17t21 -28t12 -46q0 -47 -34.5 -82t-83.5 -35q-57 0 -99.5 47t-42.5 123z" />
<glyph unicode="&#x2019;" d="M338 813q59 54 103 127q30 48 30 86q0 19 -9.5 35.5t-17 22.5t-21.5 15q-16 11 -24 17t-20.5 27t-12.5 46q0 47 34.5 82t83.5 35q57 0 99.5 -47t42.5 -123q0 -164 -218 -385z" />
<glyph unicode="&#x201a;" d="M338 -283q57 53 103 128q30 48 30 85q0 19 -9.5 35.5t-17 22.5t-21.5 15q-16 11 -24 17t-20.5 27t-12.5 46q0 47 34.5 82t83.5 35q57 0 99.5 -47t42.5 -123q0 -164 -218 -385z" />
<glyph unicode="&#x201c;" d="M161 921q0 165 217 385l71 -62q-59 -54 -103 -127q-30 -48 -30 -86q0 -19 9.5 -35t16.5 -21.5t22 -15.5t24 -17t21 -28t12 -46q0 -47 -34.5 -82t-83.5 -35q-57 0 -99.5 47t-42.5 123zM585 921q0 164 218 385l70 -62q-59 -54 -103 -127q-30 -48 -30 -86q0 -19 9.5 -35 t16.5 -21.5t22 -15.5t24 -17t21 -28t12 -46q0 -47 -34.5 -82t-83.5 -35q-57 0 -99.5 47t-42.5 123z" />
<glyph unicode="&#x201d;" d="M125 813q59 54 103 127q31 50 31 86q0 19 -9.5 35.5t-17 22.5t-21.5 15q-16 11 -24 17t-20.5 27t-12.5 46q0 47 34.5 82t83.5 35q57 0 99.5 -47t42.5 -123q0 -164 -218 -385zM550 813q59 54 103 127q30 48 30 86q0 19 -9.5 35.5t-17 22.5t-21.5 15q-16 11 -24 17 t-20.5 27t-12.5 46q0 47 34.5 82t83.5 35q57 0 99.5 -47t42.5 -123q0 -164 -218 -385z" />
<glyph unicode="&#x201e;" d="M125 -283q57 53 103 128q31 50 31 85q0 19 -9.5 35.5t-17 22.5t-21.5 15q-16 11 -24 17t-20.5 27t-12.5 46q0 47 34.5 82t83.5 35q57 0 99.5 -47t42.5 -123q0 -164 -218 -385zM550 -283q57 53 103 128q30 48 30 85q0 19 -9.5 35.5t-17 22.5t-21.5 15q-16 11 -24 17 t-20.5 27t-12.5 46q0 47 34.5 82t83.5 35q57 0 99.5 -47t42.5 -123q0 -164 -218 -385z" />
<glyph unicode="&#x2022;" d="M350 607q0 71 50.5 121t123.5 50t123.5 -50t50.5 -121t-50.5 -121t-123.5 -50q-72 0 -123 50t-51 121z" />
<glyph unicode="&#x2026;" d="M14 95q0 48 35.5 82.5t85.5 34.5t85.5 -34.5t35.5 -82.5t-35.5 -83t-85.5 -35t-85.5 34.5t-35.5 83.5zM368 95q0 48 35.5 82.5t85.5 34.5t85.5 -34.5t35.5 -82.5t-35.5 -83t-85.5 -35t-85.5 34.5t-35.5 83.5zM721 95q0 48 35.5 82.5t85.5 34.5t85.5 -34.5t35.5 -82.5 t-35.5 -83t-85.5 -35t-85.5 34.5t-35.5 83.5z" />
<glyph unicode="&#x202f;" horiz-adv-x="328" />
<glyph unicode="&#x2039;" d="M297 470v48l311 302l80 -85l-248 -242l262 -286l-82 -82z" />
<glyph unicode="&#x203a;" d="M297 207l262 286l-248 242l80 85l311 -302v-48l-324 -345z" />
<glyph unicode="&#x205f;" horiz-adv-x="410" />
<glyph unicode="&#x20ac;" d="M67 447l27 119h82v32q0 78 5 132h-114l27 118h104q24 119 73 202q38 66 88.5 114t105 73.5t106 37t103.5 11.5q168 0 277 -111l-51 -139q-8 7 -10.5 21.5t-7.5 20.5q-91 91 -216 91q-105 0 -197 -68t-134 -213l-10 -40h506l-44 -118h-479q-5 -58 -5 -121q0 -29 1 -43h421 l-46 -119h-364q21 -125 84 -209q51 -70 123 -104t148 -34q126 0 219 84l58 -103q-119 -104 -286 -104q-54 0 -108 12t-115 45t-109.5 83.5t-87.5 135.5t-55 194h-119z" />
<glyph unicode="&#x2122;" d="M36 1218v82h453v-82h-184v-563h-93v563h-176zM548 655v645h72l147 -297l77 148l77 149h67v-645h-86v440l-62 -112l-61 -109l-32 2l-113 219v-440h-86z" />
<glyph unicode="&#x25fc;" horiz-adv-x="931" d="M0 0v932h932v-932h-932z" />
</font>
</defs>
</svg>
