<?xml version="1.0" standalone="no"?>
<!DOCTYPE svg PUBLIC "-//W3C//DTD SVG 1.1//EN" "http://www.w3.org/Graphics/SVG/1.1/DTD/svg11.dtd" >
<svg xmlns="http://www.w3.org/2000/svg">
<metadata></metadata>
<defs>
<font id="bosun03" horiz-adv-x="1062" >
<font-face units-per-em="2048" ascent="1565" descent="-483" />
<missing-glyph horiz-adv-x="600" />
<glyph horiz-adv-x="0" />
<glyph horiz-adv-x="682" />
<glyph horiz-adv-x="0" />
<glyph unicode="&#x9;" horiz-adv-x="600" />
<glyph unicode=" "  horiz-adv-x="600" />
<glyph unicode="&#x09;" horiz-adv-x="600" />
<glyph unicode="&#xa0;" horiz-adv-x="600" />
<glyph unicode="!" horiz-adv-x="563" d="M393 582l23 -154h127l20 154v882h-170v-882zM395 0h168v219h-168v-219z" />
<glyph unicode="&#x22;" horiz-adv-x="847" d="M287 1454h211l-64 -520h-88zM637 1454h211l-66 -520h-86z" />
<glyph unicode="#" horiz-adv-x="1478" d="M98 410l11 143h309l49 362h-342l8 144h354l50 379h145l-51 -379h393l51 379h146l-54 -379h312l-11 -144h-319l-49 -362h354l-10 -143h-365l-55 -410h-143l55 410h-393l-56 -410h-143l55 410h-301zM563 553h391l50 362h-394z" />
<glyph unicode="$" horiz-adv-x="1075" d="M233 246l154 65q17 -44 55 -82q80 -77 193 -77t190 77q80 77 80 185t-76 184l-4 2q-28 30 -67.5 45.5t-106.5 30.5q-58 12 -92.5 21.5t-84 35t-85.5 62.5q-57 57 -89 132t-32 154t32 153.5t89 131.5q93 90 219 111v161h131v-159q132 -18 230 -113q45 -45 86 -129 l-154 -68q-20 46 -53 76q-68 68 -168 68q-104 0 -172 -68q-70 -67 -70 -164q0 -99 70 -166l2 -2q19 -20 50 -35t55 -21.5t71 -16.5q59 -12 93.5 -21.5t84.5 -35.5t86 -64q123 -123 123 -305q0 -181 -127 -308q-107 -104 -254 -120v-158h-133v160q-137 25 -233 118 q-54 54 -93 140z" />
<glyph unicode="%" horiz-adv-x="1970" d="M307 1096q0 -99 14 -172t60 -127q92 -101 260 -101t260 101q47 54 61.5 127t14.5 172q0 100 -14.5 174.5t-61.5 126.5q-89 100 -260 100t-260 -100q-46 -52 -60 -126.5t-14 -174.5zM453 1096q0 161 39 204q46 52 149 52q106 0 152 -52q36 -40 36 -189v-15v-11 q0 -42 -1 -68.5t-9.5 -66t-25.5 -57.5q-45 -51 -152 -51q-104 0 -149 51q-39 43 -39 203zM770 25l299 743l299 735l133 -53l-297 -735l-301 -744zM1300 379q0 -100 14.5 -174.5t61.5 -126.5q87 -98 260 -98t260 98q47 52 60.5 125.5t13.5 175.5q0 65 -3.5 108t-20.5 99 t-50 92q-89 100 -260 100t-260 -100q-47 -52 -61.5 -126t-14.5 -173zM1446 379q0 158 39 203q43 49 151 49q106 0 152 -49q37 -45 37 -203q0 -162 -37 -205q-46 -49 -152 -49q-108 0 -151 49q-39 43 -39 205z" />
<glyph unicode="&#x26;" horiz-adv-x="1531" d="M285 365q2 -91 39 -169t108 -133q69 -53 155.5 -70.5t194.5 -17.5q188 0 351 136l94 -111h223l-193 225l293 271l-247 8l-156 -150l-305 363l223 139q111 105 111 270q0 169 -111 271q-116 110 -283 110q-163 0 -282 -110q-109 -100 -109 -271q0 -132 101 -260l92 -108 l-146 -90q-6 -4 -16.5 -11.5t-37 -35t-47 -59.5t-37 -85t-15.5 -112zM455 365q0 104 77 161l162 105l330 -391q-64 -55 -121 -75t-121 -20q-173 0 -245 54q-82 67 -82 166zM559 1126q0 92 57 146q65 65 166 65q103 0 168 -65q56 -53 56 -146q0 -89 -52 -141l-225 -143 l-104 131q-66 83 -66 153z" />
<glyph unicode="'" horiz-adv-x="497" d="M287 1458h211l-64 -520h-86z" />
<glyph unicode="(" horiz-adv-x="647" d="M258 668q0 564 295 1030l135 -88q-252 -395 -252 -942q0 -549 252 -944l-135 -89q-145 227 -220 490t-75 543z" />
<glyph unicode=")" horiz-adv-x="647" d="M176 -276l135 -89q145 227 220 490t75 543q0 564 -295 1030l-135 -88q252 -395 252 -942q0 -549 -252 -944z" />
<glyph unicode="*" horiz-adv-x="1013" d="M160 1104l41 125l323 -105v340h131v-340l322 105l41 -125l-322 -103l197 -274l-105 -78l-198 273l-201 -273l-106 78l198 274z" />
<glyph unicode="+" horiz-adv-x="1265" d="M250 446v132h442v438h131v-438h443v-132h-443v-444h-131v444h-442z" />
<glyph unicode="," horiz-adv-x="585" d="M287 -201h147l152 420h-170z" />
<glyph unicode="-" horiz-adv-x="743" d="M193 500h550v133h-550v-133z" />
<glyph unicode="." horiz-adv-x="454" d="M287 0h168v219h-168v-219z" />
<glyph unicode="/" horiz-adv-x="931" d="M246 -250l164 -2l526 1733h-166z" />
<glyph unicode="0" horiz-adv-x="1173" d="M287 711q0 -182 17 -312t73 -221q67 -106 164 -147q86 -39 190 -39q105 0 191 39q94 41 161 147q56 91 73.5 222t17.5 311q0 179 -17.5 310t-73.5 222q-66 104 -161 146q-84 38 -191 38q-106 0 -190 -38q-98 -42 -164 -146q-56 -90 -73 -220.5t-17 -311.5zM457 711 q0 69 1 110t6.5 113t20 127t37.5 92q36 56 84.5 81.5t124.5 25.5t124.5 -25.5t84.5 -81.5q23 -37 37.5 -91.5t19.5 -128.5t6 -112t1 -110q0 -73 -1 -111t-6 -113t-19.5 -129.5t-37.5 -91.5q-35 -55 -83.5 -78.5t-125.5 -23.5t-125.5 23.5t-83.5 78.5q-23 37 -37.5 92 t-20 128.5t-6.5 114.5t-1 110z" />
<glyph unicode="1" horiz-adv-x="972" d="M246 1188l92 -135l319 213v-1266h168v1417h-235z" />
<glyph unicode="2" horiz-adv-x="1198" d="M319 2l3 141l608 652h2q72 75 78 174q6 105 -56 186q-59 81 -157 100q-105 19 -191 -41q-62 -40 -96 -120l-158 65q37 90 108 156.5t163 95.5q98 30 197.5 11.5t180.5 -79.5q78 -58 125.5 -146t53.5 -185q5 -94 -27.5 -181.5t-97.5 -152.5l-475 -508h616v-168h-877z" />
<glyph unicode="3" horiz-adv-x="1140" d="M270 430h170q0 -112 75 -190t181 -78q107 0 181.5 78t74.5 190t-74.5 190t-181.5 78h-100v154l309 399h-530v168h743v-168l-303 -401q134 -40 220.5 -156.5t86.5 -263.5q0 -182 -124.5 -310t-301.5 -128q-175 0 -300.5 128.5t-125.5 309.5z" />
<glyph unicode="4" horiz-adv-x="1196" d="M242 315h653v-315h172v315h154v158h-154v950h-186l-639 -931v-177zM414 473l481 690v-690h-481z" />
<glyph unicode="5" horiz-adv-x="1218" d="M348 444h168q0 -115 80 -198.5t190 -83.5q112 0 191.5 83t79.5 199q0 117 -79.5 200t-191.5 83h-327v694h708v-170h-538v-356h157q183 0 311 -132.5t128 -318.5t-128 -318t-311 -132q-181 0 -309.5 132t-128.5 318z" />
<glyph unicode="6" horiz-adv-x="1124" d="M291 334v661q0 197 123 320q60 60 140.5 91.5t168.5 29.5q50 -1 108 -12t99 -23.5t86.5 -30.5t58 -24t25.5 -13l-80 -149q-4 4 -45.5 22.5t-117 39.5t-138.5 22q-107 3 -187 -74q-73 -73 -73 -199v-213q178 68 291 68q169 0 266 -100q47 -47 75 -113t33.5 -103t5.5 -63 q0 -62 -8 -121q-21 -142 -106 -237q-107 -119 -297 -119q-227 0 -342 121q-86 90 -86 219zM459 328q0 -56 43 -99q62 -65 217 -65q118 0 172 63q34 39 50 97.5t15 97.5v39q1 70 -26 123q-49 98 -180 98q-57 0 -143.5 -28t-147.5 -56v-270z" />
<glyph unicode="7" horiz-adv-x="1169" d="M352 1251h664l-473 -1249h180l473 1249v170h-844v-170z" />
<glyph unicode="8" horiz-adv-x="1202" d="M303 289q-15 144 47.5 263.5t190.5 184.5q-74 38 -124 82.5t-73 108.5q-24 64 -24 139t24 139q28 76 93.5 129t142.5 75.5t161 21.5q92 -2 173.5 -33t143 -97t77.5 -157q21 -142 -25 -252q-25 -57 -73 -96t-119 -74q58 -30 106 -72q96 -87 125.5 -226t-31.5 -255 q-31 -56 -86 -95t-116 -55t-129.5 -22.5t-127.5 0.5q-141 12 -242 85.5t-114 205.5zM474 409q-14 -64 5.5 -125t73.5 -87q75 -38 186 -37t183 43q54 31 66 95.5t-11.5 127t-65.5 100.5q-25 22 -55.5 39.5t-80.5 39t-64 28.5q-16 -8 -48.5 -23t-53.5 -25t-45.5 -28t-39.5 -39 q-36 -45 -50 -109zM494 1077q0 -107 47 -143q27 -20 58 -37.5t78.5 -40.5t63.5 -31q19 10 51 24.5t52 24t45 25.5t39.5 33t25.5 42.5t13 57.5q7 110 -55 169t-175 61q-98 3 -170.5 -44t-72.5 -141z" />
<glyph unicode="9" horiz-adv-x="1124" d="M291 958q0 94 4 123q21 147 106 238q104 119 295 119q229 0 344 -121q88 -94 88 -219v-662q0 -195 -124 -319q-61 -59 -141 -91.5t-167 -31.5q-173 2 -377 104l78 150l9 -4q10 -5 27 -12.5t38.5 -16t49 -17.5t55.5 -16.5t60 -12.5t60 -5q115 0 189 74q73 70 73 198v215 q-181 -69 -292 -69q-170 0 -267 100q-46 47 -72.5 112.5t-31 100.5t-4.5 63zM459 967q0 -64 30 -119q52 -98 177 -98q59 0 144.5 28t147.5 56v270q0 8 -2 20t-12.5 36t-28.5 42q-68 68 -219 68q-110 0 -170 -66q-67 -74 -67 -237z" />
<glyph unicode=":" horiz-adv-x="471" d="M303 0h168v221h-168v-221zM303 723h168v219h-168v-219z" />
<glyph unicode=";" horiz-adv-x="602" d="M303 -199h148l151 420h-170zM432 721h170v221h-170v-221z" />
<glyph unicode="&#x3c;" horiz-adv-x="1146" d="M254 494l893 -494v152l-729 399l729 397v152l-893 -494v-112z" />
<glyph unicode="=" horiz-adv-x="1259" d="M250 283h1010v129h-1010v-129zM250 717h1010v133h-1010v-133z" />
<glyph unicode="&#x3e;" horiz-adv-x="1146" d="M254 0v152l729 399l-729 397v152l893 -494v-112z" />
<glyph unicode="?" horiz-adv-x="976" d="M164 1235l155 -66q20 44 54 78q69 72 174 72q104 0 176 -72q74 -74 74 -174q0 -99 -74 -176l-256 -279v-192h168v127l209 225q121 124 121 295q0 175 -123 295q-123 123 -295 123q-169 0 -295 -123q-57 -57 -88 -133zM465 0h168v219h-168v-219z" />
<glyph unicode="@" horiz-adv-x="1628" d="M193 743q0 151 54 289t154 244q101 104 228 156q130 53 276 53q149 0 279 -53q132 -54 227 -156q101 -105 155 -243.5t54 -289.5v-2q0 -234 -141 -338q-88 -61 -213 -61q-41 0 -95.5 13t-83 23.5t-36.5 14.5v35q-82 -51 -189 -51q-113 0 -188 78q-86 92 -86 262 q0 172 86 264q74 74 188 74q27 0 58.5 -7t76.5 -22l54 -18v24h129v-553q142 -26 223 31q88 63 88 231v2q0 126 -44.5 241t-127.5 204q-157 168 -414 168q-252 0 -409 -168q-83 -89 -127.5 -204t-44.5 -241q0 -131 46.5 -257.5t125.5 -211.5q157 -168 409 -168q128 0 260 66 l60 -117q-150 -78 -320 -78q-143 0 -276 54q-128 52 -228 155q-96 103 -152 252.5t-56 304.5zM719 717q0 -59 12 -101.5t27.5 -62.5t39 -31t35.5 -12.5t29 -1.5q19 0 39 2.5t48.5 12t49.5 25t36.5 44.5t15.5 67v228q-118 37 -189 37q-17 0 -29 -1.5t-35.5 -12.5t-39 -30.5 t-27.5 -61.5t-12 -101z" />
<glyph unicode="A" horiz-adv-x="1372" d="M94 0l516 1464h252l514 -1464h-190l-117 340h-670l-116 -340h-189zM453 504h563l-281 837z" />
<glyph unicode="B" horiz-adv-x="1181" d="M336 2v1462h522q159 0 248 -106q43 -52 67.5 -129.5t24.5 -157.5q0 -61 -12.5 -114.5t-30 -87t-34.5 -58t-29 -35.5l-13 -10q7 -4 17.5 -11.5t38.5 -37t49.5 -65t39 -97t17.5 -131.5q0 -87 -28 -169t-76 -140q-91 -113 -265 -113h-536zM506 170h366q95 0 136 53 q29 33 45 88t16 113t-16 113t-45 88q-46 59 -136 59h-366v-514zM506 840h356q31 1 56.5 11.5t33.5 17.5t23 22q25 29 40 79t15 101q0 50 -15 99.5t-40 78.5q-40 45 -117 45h-352v-454z" />
<glyph unicode="C" horiz-adv-x="1136" d="M246 723q3 -391 112 -547q70 -107 179 -149q75 -33 206 -33q134 0 238 59q128 73 193 234l-154 63q-22 -56 -55.5 -95t-72.5 -59t-75 -28t-74 -8q-93 0 -149.5 24.5t-95.5 83.5q-82 119 -84 463q2 346 84 465q40 60 96.5 85.5t148.5 25.5q38 0 74.5 -8.5t75 -29t72 -60 t55.5 -95.5l154 66q-63 158 -193 231q-112 64 -238 64t-206 -35q-110 -42 -179 -148q-109 -156 -112 -553v-16z" />
<glyph unicode="D" horiz-adv-x="1280" d="M344 2v1464l434 -2q140 0 215 -24q123 -38 197 -140q69 -93 108 -268q29 -145 29 -299t-29 -299q-39 -178 -108 -266q-73 -100 -197 -139q-85 -27 -215 -27h-434zM514 172h264q108 0 170 19t105 77q47 63 75.5 189.5t28.5 275.5t-28.5 275.5t-75.5 189.5q-43 58 -106 78 t-169 20h-264v-1124z" />
<glyph unicode="E" horiz-adv-x="1146" d="M344 0h873v164h-703v512h627v164h-627v458h703v166h-873v-1464z" />
<glyph unicode="F" horiz-adv-x="1132" d="M344 0v1464l873 -2v-166h-703v-481h625v-164h-625v-651h-170z" />
<glyph unicode="G" horiz-adv-x="1222" d="M246 737q0 146 30 299q33 167 109 269q72 99 197 141q85 27 215 27t215 -27q123 -40 196 -141l-135 -101q-43 58 -106 78.5t-170 20.5q-106 0 -169.5 -20.5t-105.5 -78.5q-49 -64 -76.5 -189.5t-27.5 -277.5t27.5 -278.5t76.5 -190.5q41 -58 104 -77t171 -19h256v424 h-265v162h435v-756h-426q-130 0 -215 27q-124 39 -197 139q-76 102 -109 268q-30 153 -30 301z" />
<glyph unicode="H" horiz-adv-x="1296" d="M344 2v1462h170v-624h612v624h170v-1462h-170v678h-612v-678h-170z" />
<glyph unicode="I" horiz-adv-x="512" d="M344 2h168v1462h-168v-1462z" />
<glyph unicode="J" horiz-adv-x="765" d="M123 29q107 -43 194 -43q152 0 244 98q74 74 96 203q11 58 11 108v1069h-170v-1075q0 -128 -58 -188q-45 -45 -123 -45q-47 0 -135 32z" />
<glyph unicode="K" horiz-adv-x="1288" d="M344 0v1464h170v-909l600 909h205l-424 -643l510 -821h-203l-411 662l-277 -416v-246h-170z" />
<glyph unicode="L" horiz-adv-x="1054" d="M344 0h832v164h-662v1300h-170v-1464z" />
<glyph unicode="M" horiz-adv-x="1605" d="M344 0h168v1202l330 -995h264l332 997v-1204h168v1464h-256l-375 -1126l-377 1126h-254v-1464z" />
<glyph unicode="N" horiz-adv-x="1390" d="M344 0h168v1268l625 -1268h254v1464h-170v-1261l-619 1261h-258v-1464z" />
<glyph unicode="O" horiz-adv-x="1396" d="M246 735q0 -179 24 -291q34 -152 111 -256q77 -106 201 -165q105 -48 239 -48q135 0 240 48q124 59 201 165q82 110 110 256q25 117 25 291q0 172 -25 289q-29 148 -110 258q-80 109 -201 164q-107 49 -240 49q-132 0 -239 -49q-121 -55 -201 -164q-77 -103 -111 -258 q-24 -112 -24 -289zM422 735q0 316 96 447q49 67 128.5 104t174.5 37t174.5 -37t128.5 -104q97 -132 97 -447q0 -316 -97 -448q-49 -67 -128 -102t-175 -35t-175 35t-128 102q-96 131 -96 448z" />
<glyph unicode="P" horiz-adv-x="1179" d="M344 0v1464h514q174 0 295 -137q117 -133 117 -317t-117 -320q-121 -137 -295 -137h-346v-553h-168zM512 719h346q100 0 172 86t72 205q0 117 -72.5 203.5t-171.5 86.5h-346v-581z" />
<glyph unicode="Q" horiz-adv-x="1325" d="M246 729q0 180 24 289q34 152 111 256q78 108 199 162q111 51 237 51q127 0 238 -51q119 -54 198 -162q83 -112 111 -256q25 -114 25 -289q0 -171 -25 -285q-27 -141 -111 -254q-1 -1 -2 -3t-2 -3l137 -139l-126 -121l-134 146q-46 -32 -71 -43q-109 -50 -238 -50 q-128 0 -237 50q-120 54 -199 163q-78 105 -111 254q-24 109 -24 285zM418 731q0 -311 98 -442q49 -66 128 -101.5t173 -35.5q117 0 193 43l-92 98l120 113l95 -97q84 130 84 422q0 313 -99 445q-49 65 -127.5 100t-173.5 35t-173.5 -35t-127.5 -100q-98 -131 -98 -445z" />
<glyph unicode="R" horiz-adv-x="1257" d="M344 0v1464h514q174 0 295 -137q117 -129 117 -317t-117 -320q-56 -62 -125 -96l301 -594h-190l-281 553h-346v-553h-168zM512 719h346q101 0 172.5 86t71.5 205q0 118 -71.5 204t-172.5 86h-346v-581z" />
<glyph unicode="S" horiz-adv-x="1150" d="M193 135l88 148q207 -121 409 -121q132 0 205.5 70.5t73.5 197.5q0 126 -58 176q-65 63 -243 86q-205 29 -306 119q-100 93 -100 272q0 175 109 287q113 113 299 113q228 0 446 -129l-88 -148q-177 107 -358 107q-112 0 -174 -60.5t-62 -169.5q0 -106 47 -147 q53 -53 211 -74q232 -34 338 -131q111 -105 111 -301q0 -194 -121 -315q-125 -125 -330 -125q-116 0 -227 30q-147 41 -270 115z" />
<glyph unicode="T" horiz-adv-x="1130" d="M90 1305v159h1040v-159h-436v-1305h-168v1305h-436z" />
<glyph unicode="U" horiz-adv-x="1388" d="M328 487q0 -223 135 -362q139 -148 393 -148q263 0 401 150q45 48 74.5 107t38.5 111q10 53 12 83q2 22 2 37v12v987h-167v-1003q0 -142 -80 -228q-97 -104 -281 -104q-171 0 -270 102q-26 26 -44.5 61t-27 62.5t-13 58.5t-5 41t-0.5 19v991h-168v-977z" />
<glyph unicode="V" horiz-adv-x="1183" d="M86 1464l430 -1464h254l430 1464h-176l-383 -1304l-377 1304h-178z" />
<glyph unicode="W" horiz-adv-x="2062" d="M94 1466h178l361 -1290l334 938h202l357 -938l358 1290h180l-411 -1466h-244l-340 920l-321 -920h-242z" />
<glyph unicode="X" horiz-adv-x="1198" d="M115 0l446 748l-428 716h197l329 -557l328 557h197l-426 -716l444 -748h-196l-347 586l-348 -586h-196z" />
<glyph unicode="Y" horiz-adv-x="1075" d="M74 1464h184l322 -770l319 770h184l-419 -977v-487h-170v487z" />
<glyph unicode="Z" horiz-adv-x="1212" d="M225 0h987v168h-786l780 1130v166h-944v-166h742l-779 -1130v-168z" />
<glyph unicode="[" horiz-adv-x="634" d="M328 -330h395v158h-227v1659h227v158h-395v-1975z" />
<glyph unicode="\" horiz-adv-x="931" d="M238 1481h165l525 -1731l-164 -2z" />
<glyph unicode="]" horiz-adv-x="634" d="M152 -172h227v1659h-227v158h395v-1975h-395v158z" />
<glyph unicode="^" horiz-adv-x="1071" d="M246 653h143l270 572l269 -572h147l-336 688h-161z" />
<glyph unicode="_" horiz-adv-x="1011" d="M0 -53v-129h1012v129h-1012z" />
<glyph unicode="a" d="M250 242q-1 15 -1 31q-1 62 19 124q24 77 79.5 133t127.5 66q23 4 70 4q110 0 280 -37l35 -8v80v29q0 80 -14 114q-21 49 -84 60q-24 4 -39 4q-115 0 -336 -101l-104 131q26 16 61.5 34t101 45.5t147 45t159.5 17.5q84 0 151 -33q111 -56 123 -182q2 -13 2 -212 q0 -66 1 -132q0 -131 -1 -260v-193h-168v53l-35 -12q-131 -61 -297 -61q-120 0 -194.5 70t-83.5 190zM408 252q6 -100 120 -100q39 0 59.5 0.5t57.5 1.5t57.5 4.5t49.5 9t45 15.5t32.5 22.5t23.5 31.5t7 42v129l-20 4q-106 24 -230 24q-69 0 -121 -8q-33 -7 -57 -57 q-25 -51 -25 -100q0 -9 1 -19zM752 1014z" />
<glyph unicode="b" horiz-adv-x="1064" d="M336 0v1464h170v-559q170 111 319 111q88 0 155 -45t105 -131q37 -83 37 -158v-375q0 -153 -106 -237q-94 -72 -248 -84q-20 -2 -63 -2q-45 0 -137.5 4t-161.5 8zM506 172q116 -19 202 -19q140 0 203 50q43 32 43 104v371q0 39 -24 96q-35 72 -105 72q-8 0 -22.5 -1 t-55.5 -9.5t-78.5 -23t-83.5 -46t-79 -74.5v-520z" />
<glyph unicode="c" horiz-adv-x="1005" d="M217 496q6 -259 109 -385q62 -77 142 -102t177 -25q110 0 197 39q121 57 174 167l-152 74q-53 -110 -219 -110q-74 0 -116.5 14t-71.5 49q-32 38 -50 114t-20 171q2 95 20 170.5t50 113.5q30 36 72.5 51t115.5 15q24 0 49.5 -4t59 -15t63.5 -35.5t47 -60.5l152 76 q-55 112 -174 166q-92 41 -197 41q-97 0 -177 -25t-142 -102q-103 -126 -109 -385v-12z" />
<glyph unicode="d" d="M217 276v406q0 73 37 156q38 85 105 130.5t155 45.5q183 0 322 -117v567h168v-1464h-168v72q-155 -97 -320 -97q-108 0 -184 48q-115 78 -115 253zM385 276q0 -83 41 -112q16 -9 48 -15q28 -5 71 -5h15q52 1 126.5 29.5t149.5 84.5v406q-29 64 -82 106t-111.5 58 t-126.5 16q-69 0 -104 -72q-6 -14 -11.5 -31.5t-8 -29l-5 -23t-2.5 -12.5v-400z" />
<glyph unicode="e" horiz-adv-x="1073" d="M217 504q0 239 111 375q53 64 145 104q81 35 184 35q209 0 316 -125q100 -112 100 -315v-158h-684q12 -134 72 -197t219 -63q69 0 156 17.5t135 39.5l69 -154q-65 -29 -169 -51t-191 -22q-229 0 -342 116q-60 60 -92 168q-29 102 -29 230zM389 569h514v9q0 138 -57 204 t-189 66t-198 -78q-61 -74 -70 -201z" />
<glyph unicode="f" horiz-adv-x="802" d="M168 817h164v-817h168v817h278v158h-278v270q0 40 18 58q13 16 53 16q31 0 85.5 -18.5t93.5 -40.5l81 133q-154 86 -258 86q-116 0 -178 -70q-63 -66 -63 -178v-256h-164v-158z" />
<glyph unicode="g" horiz-adv-x="1103" d="M213 -291l131 105q28 -35 65.5 -60t71.5 -36t64 -17t47 -6h18q121 0 187 69q77 81 77 232v106q-176 -110 -337 -110q-89 0 -158 43t-109 125q-16 32 -26 69t-12.5 55.5t-2.5 26.5v391q0 20 4 46t17 69.5t46 86.5t81 71q76 41 175 41q44 0 93 -8q95 -17 229 -74v53h168 v-987q0 -24 -2.5 -50t-12 -82.5t-38 -115t-71.5 -104.5q-116 -116 -302 -119h-20q-33 0 -71 6t-94 22.5t-114 55.5t-104 96zM397 317q0 -1 2 -12t4.5 -22.5t7.5 -28t11 -29.5q35 -65 115 -65q116 0 247 84q57 36 90 63v443q-147 74 -258 92q-34 5 -63 5q-57 0 -92 -20 q-27 -16 -43 -48.5t-18.5 -49.5t-2.5 -27v-385z" />
<glyph unicode="h" horiz-adv-x="1142" d="M336 0v1464h170v-659q36 41 62.5 68t70.5 64.5t90.5 57t91.5 19.5q157 0 240 -76q92 -83 92 -240v-698h-168v698q0 77 -39 113q-19 17 -48.5 26t-49.5 9h-19q-33 0 -68 -16t-74 -50.5t-54.5 -50t-50.5 -53.5q-70 -79 -76 -199v-477h-170z" />
<glyph unicode="i" horiz-adv-x="497" d="M328 0h170v987h-170v-987zM328 1260h170v202h-170v-202z" />
<glyph unicode="j" horiz-adv-x="638" d="M-29 -424l82 148q88 -31 166 -31q39 0 55 16q19 21 19 60v1222h168v-1216q0 -112 -64 -181q-62 -71 -178 -71q-66 0 -143 19t-105 34zM293 1262h168v202h-168v-202z" />
<glyph unicode="k" horiz-adv-x="1046" d="M336 0v1462h168v-895l330 420h215l-256 -328l366 -659h-196l-279 518l-180 -225v-293h-168z" />
<glyph unicode="l" horiz-adv-x="747" d="M344 225v1237h168v-1245q0 -3 4 -27q8 -24 14 -30q20 -17 56 -17q27 0 88 23q64 26 94 43l82 -148q-13 -9 -105 -49q-81 -37 -159 -37q-67 0 -115 23q-36 20 -63 47q-49 49 -58 107q-6 59 -6 73z" />
<glyph unicode="m" horiz-adv-x="1789" d="M336 0v969h168v-64q7 7 22.5 19t18.5 14q119 78 278 78q23 0 52 -3t89.5 -26.5t102.5 -64.5q18 -16 43 -58q38 45 84 74q116 78 276 78q23 0 52 -3t89.5 -26.5t102.5 -64.5q86 -83 86 -224v-698h-170v698q0 68 -35 103q-19 19 -49.5 30.5t-51.5 12.5l-21 2 q-197 0 -277 -156q-43 -84 -43 -168v-522h-170v698q0 68 -35 103q-20 19 -51 30.5t-53 12.5l-21 2q-195 0 -274 -156q-11 -22 -19.5 -47t-13 -45t-7 -36.5t-4 -27.5t-1.5 -12v-522h-168z" />
<glyph unicode="n" horiz-adv-x="1144" d="M336 0v989h170v-180q41 45 64.5 68t70 62t92 58t90.5 19q152 0 238 -78q94 -85 94 -238v-700h-170v700q0 77 -39 113q-18 17 -47.5 26t-49.5 9h-20q-33 0 -68 -16t-74.5 -51.5t-55.5 -51t-51 -53.5q-69 -77 -74 -197v-479h-170z" />
<glyph unicode="o" d="M217 504q0 -87 25.5 -200.5t87.5 -190.5q59 -73 137.5 -98t171.5 -25q94 0 173 25t140 98q62 77 86.5 189.5t24.5 201.5t-24.5 201.5t-86.5 189.5q-58 72 -136.5 96.5t-176.5 24.5q-96 0 -173.5 -24.5t-135.5 -96.5q-62 -77 -87.5 -190.5t-25.5 -200.5zM395 504 q0 96 17 178t47 119q26 32 66 44.5t114 12.5t115 -12.5t67 -44.5q30 -37 47 -119t17 -178t-17 -178t-47 -119q-27 -33 -68 -46.5t-114 -13.5q-72 0 -112 13t-68 47q-30 36 -47 118t-17 179z" />
<glyph unicode="p" horiz-adv-x="1050" d="M336 -459v1448h168v-74q141 85 217 95q41 7 78 7q93 0 164 -42q80 -48 113.5 -128.5t33.5 -150.5v-383q0 -8 -2.5 -26.5t-12 -56t-24.5 -70.5q-37 -83 -102.5 -127.5t-153.5 -44.5q-64 0 -102 2.5t-97.5 19.5t-111.5 51v-520h-168zM502 254q50 -43 138 -71.5t175 -28.5 q70 0 103 69q24 49 24 94v379q0 4 -0.5 10t-4.5 24t-11 33.5t-21.5 34t-34.5 29.5q-18 12 -51 12q-97 0 -317 -106v-479z" />
<glyph unicode="q" horiz-adv-x="1050" d="M217 313q0 -8 2.5 -26.5t12 -56t24.5 -70.5q37 -83 102.5 -127.5t153.5 -44.5q64 0 102 2.5t97.5 19.5t111.5 51v-520h168v1448h-168v-74q-141 85 -217 95q-40 7 -77 7q-93 0 -164 -42q-80 -48 -114 -128.5t-34 -150.5v-383zM385 317v379q0 4 0.5 10t4.5 24t11 33.5 t21.5 34t34.5 29.5q19 12 51 12q96 0 317 -106v-479q-50 -43 -138 -71.5t-175 -28.5q-69 0 -102 69q-25 51 -25 94z" />
<glyph unicode="r" horiz-adv-x="722" d="M336 0v987h170v-100q34 61 94 90q59 29 119 41q61 12 147 12l-65 -176q-110 0 -174 -45q-58 -41 -88 -109q-25 -59 -31 -143q-2 -51 -2 -147v-410h-170z" />
<glyph unicode="s" horiz-adv-x="1032" d="M188 121q4 -4 22.5 -16t60 -32t91 -37.5t121 -30.5t144.5 -13q161 0 252 43q147 67 147 241q0 64 -29 121.5t-82 98.5q-102 79 -251 79q-236 0 -236 132q0 49 32.5 82.5t77.5 47t97 13.5q60 0 139 -20.5t126 -39.5t50 -22l70 154q-16 8 -65 27t-146.5 43t-173.5 24 q-164 0 -268.5 -86.5t-104.5 -222.5q0 -89 39 -148q35 -55 102 -94q101 -55 261 -55q94 0 151 -45q47 -38 47 -89q0 -69 -55 -92q-51 -26 -180 -26q-57 0 -113 10t-94 23.5t-69.5 29t-45.5 24.5t-16 11z" />
<glyph unicode="t" horiz-adv-x="843" d="M147 827v160h166v246h168v-246h283v-160h-283v-606q5 -43 19 -59q17 -17 55 -17q30 0 84.5 21t95.5 45l84 -148q-170 -88 -264 -88q-110 0 -178 72q-64 69 -64 180v600h-166z" />
<glyph unicode="u" horiz-adv-x="1144" d="M307 291v698h170v-698q0 -79 37 -113q37 -35 121 -35q137 0 250 101q49 43 76 84v661h169v-989h-169v84q-147 -111 -320 -111h-20q-135 0 -220 76q-94 85 -94 242z" />
<glyph unicode="v" horiz-adv-x="950" d="M102 991l308 -989h233l311 989h-182l-244 -831l-243 831h-183z" />
<glyph unicode="w" horiz-adv-x="1603" d="M119 989l287 -989h217l241 535l234 -533l225 -2l285 989h-183l-223 -829l-229 520h-221l-230 -520l-221 829h-182z" />
<glyph unicode="x" horiz-adv-x="966" d="M115 0l329 504l-317 487h205l211 -332l213 332h202l-317 -487l330 -504h-205l-223 350l-224 -350h-204z" />
<glyph unicode="y" horiz-adv-x="1069" d="M98 991h181l307 -819l309 819h178l-481 -1294q-2 -5 -9.5 -19.5t-23.5 -37t-33 -35.5q-33 -26 -94 -56q-64 -28 -151 -28v172q91 0 122 28q15 13 35 33l60 166z" />
<glyph unicode="z" horiz-adv-x="1052" d="M225 0h828v158h-607l592 676v157h-751v-157h530l-592 -676v-158z" />
<glyph unicode="{" horiz-adv-x="686" d="M250 594v145q63 0 107 44.5t44 107.5v495q0 103 75 177.5t179 74.5h80v-153h-80q-35 0 -59.5 -24.5t-24.5 -59.5v-510q0 -80 -31.5 -144.5t-90.5 -78.5q59 -14 90.5 -79t31.5 -147v-508q0 -35 24.5 -60.5t59.5 -25.5h80v-151h-80q-104 0 -179 74t-75 178v493 q0 63 -44 107.5t-107 44.5z" />
<glyph unicode="|" horiz-adv-x="571" d="M442 -367h129v1938h-129v-1938z" />
<glyph unicode="}" horiz-adv-x="686" d="M152 -152v-151h79q104 0 179 74t75 178v493q0 63 44.5 107.5t107.5 44.5v145q-63 0 -107.5 44.5t-44.5 107.5v495q0 103 -75 177.5t-179 74.5h-79v-153h79q35 0 59.5 -24.5t24.5 -59.5v-510q0 -80 32 -144.5t91 -78.5q-59 -14 -91 -79t-32 -147v-508q0 -35 -24.5 -60.5 t-59.5 -25.5h-79z" />
<glyph unicode="~" horiz-adv-x="1009" d="M215 610q0 58 8 84q40 100 152 127q21 6 43.5 6.5t46.5 -5t44.5 -12t46.5 -19t44 -22t45 -24.5q43 -24 67 -36t56.5 -23t50.5 -6q51 13 60 47q6 18 6 35h127q0 -54 -8 -80q-38 -101 -154 -129q-21 -6 -43 -6q-35 0 -78.5 14.5t-69 27.5t-77.5 42q-132 74 -176 63 q-51 -12 -60 -45q-3 -8 -4 -17.5t0 -15.5v-6h-127z" />
<glyph unicode="&#xa1;" horiz-adv-x="567" d="M397 426v-883h170v883l-22 154h-127zM397 788h168v220h-168v-220z" />
<glyph unicode="&#xa3;" horiz-adv-x="1183" d="M328 616l30 140h129v374q0 148 103 254q103 103 254 103q148 0 254 -103q41 -44 71 -112l-153 -66q-10 28 -41 56q-59 59 -131 59q-74 0 -133 -59q-56 -56 -56 -132v-374h349l-31 -140h-318v-309q0 -64 -34 -139h563v-168h-815v168q34 0 59 14.5t36 35t17 40.5t6 34v15 v309h-159z" />
<glyph unicode="&#xa5;" horiz-adv-x="1181" d="M197 1350h184l309 -772l311 772h185l-275 -684h236l-31 -117h-252l-57 -141h344l-31 -119h-344v-289h-170v289h-336l31 119h274l-57 141h-252l31 117h174z" />
<glyph unicode="&#xa8;" horiz-adv-x="806" d="M299 1133h162v167h-162v-167zM647 1133h162v167h-162v-167z" />
<glyph unicode="&#xab;" horiz-adv-x="1058" d="M287 520l282 369h183l-285 -369l283 -368h-181zM641 520l283 369h180l-281 -369l283 -368h-182z" />
<glyph unicode="&#xad;" horiz-adv-x="743" d="M193 500h550v133h-550v-133z" />
<glyph unicode="&#xb0;" horiz-adv-x="1239" />
<glyph unicode="&#xb4;" horiz-adv-x="868" d="M520 1202l279 209l78 -125l-283 -178z" />
<glyph unicode="&#xb7;" horiz-adv-x="524" d="M328 555q0 -40 31.5 -69t70.5 -29t66.5 28.5t27.5 69.5t-27.5 69.5t-66.5 28.5t-70.5 -29t-31.5 -69z" />
<glyph unicode="&#xbb;" horiz-adv-x="1058" d="M193 152h182l282 368l-282 369h-180l280 -369zM547 889l284 -369l-282 -368h180l283 368l-283 369h-182z" />
<glyph unicode="&#xbf;" horiz-adv-x="976" d="M188 -66q0 -174 123 -294q123 -123 295 -123q169 0 295 123q57 57 88 133l-155 65q-20 -44 -54 -78q-68 -71 -174 -71q-105 0 -176 71q-74 74 -74 174t74 177l256 278v193h-168v-127l-209 -226q-121 -124 -121 -295zM520 788h168v220h-168v-220z" />
<glyph unicode="&#xc0;" horiz-adv-x="1372" d="M94 0l516 1464h252l514 -1464h-190l-117 340h-670l-116 -340h-189zM453 504h563l-281 837zM557 1745l283 -178l73 94l-278 209z" />
<glyph unicode="&#xc1;" horiz-adv-x="1372" d="M94 0l516 1464h252l514 -1464h-190l-117 340h-670l-116 -340h-189zM453 504h563l-281 837zM557 1661l279 209l77 -125l-282 -178z" />
<glyph unicode="&#xc2;" horiz-adv-x="1372" d="M94 0l516 1464h252l514 -1464h-190l-117 340h-670l-116 -340h-189zM428 1567h150l157 243l156 -243h149l-215 342h-182zM453 504h563l-281 837z" />
<glyph unicode="&#xc3;" horiz-adv-x="1372" d="M94 0l516 1464h252l514 -1464h-190l-117 340h-670l-116 -340h-189zM453 504h563l-281 837zM459 1610h125q2 16 6 22q9 18 26 21q16 4 91 -35q88 -51 143 -51q13 0 37 4q70 17 99.5 69.5t27.5 100.5h-127q-2 -9 -6 -23q-6 -15 -25 -18q-20 -5 -88 37q-113 62 -184 45 q-69 -18 -98 -70.5t-27 -101.5z" />
<glyph unicode="&#xc4;" horiz-adv-x="1372" d="M94 0l516 1464h252l514 -1464h-190l-117 340h-670l-116 -340h-189zM453 504h563l-281 837zM481 1567h162v168h-162v-168zM829 1567h162v168h-162v-168z" />
<glyph unicode="&#xc5;" horiz-adv-x="1372" d="M94 0l516 1464h252l514 -1464h-190l-117 340h-670l-116 -340h-189zM453 504h563l-281 837zM551 1751q0 -75 53.5 -129.5t128.5 -54.5t130 54.5t55 129.5t-55 129.5t-130 54.5t-128.5 -54.5t-53.5 -129.5zM657 1751q0 33 22 57.5t54 24.5t54 -24.5t22 -57.5t-22 -58.5 t-54 -25.5t-54 25.5t-22 58.5z" />
<glyph unicode="&#xc8;" horiz-adv-x="1146" d="M344 0h873v164h-703v512h627v164h-627v458h703v166h-873v-1464zM602 1745l283 -178l73 94l-278 209z" />
<glyph unicode="&#xc9;" horiz-adv-x="1146" d="M344 0h873v164h-703v512h627v164h-627v458h703v166h-873v-1464zM602 1661l279 209l77 -125l-282 -178z" />
<glyph unicode="&#xca;" horiz-adv-x="1146" d="M344 0h873v164h-703v512h627v164h-627v458h703v166h-873v-1464zM473 1567h150l157 243l156 -243h149l-215 342h-182z" />
<glyph unicode="&#xcb;" horiz-adv-x="1146" d="M344 0h873v164h-703v512h627v164h-627v458h703v166h-873v-1464zM526 1567h162v168h-162v-168zM874 1567h162v168h-162v-168z" />
<glyph unicode="&#xcc;" horiz-adv-x="512" d="M156 1745l282 -178l74 94l-279 209zM250 2h168v1462h-168v-1462z" />
<glyph unicode="&#xcd;" horiz-adv-x="512" d="M156 1661l278 209l78 -125l-283 -178zM250 2h168v1462h-168v-1462z" />
<glyph unicode="&#xce;" horiz-adv-x="512" d="M-102 1567h149l158 243l155 -243h150l-215 342h-182zM121 2h168v1462h-168v-1462z" />
<glyph unicode="&#xcf;" horiz-adv-x="512" d="M4 1567h162v168h-162v-168zM174 2h168v1462h-168v-1462zM352 1567h162v168h-162v-168z" />
<glyph unicode="&#xd1;" horiz-adv-x="1390" d="M344 0h168v1268l625 -1268h254v1464h-170v-1261l-619 1261h-258v-1464zM592 1610h125q2 16 6 22q9 18 27 21q16 3 90 -35q88 -51 143 -51q13 0 37 4q70 17 99.5 69.5t27.5 100.5h-127q-2 -9 -6 -23q-6 -15 -25 -18q-20 -5 -88 37q-113 62 -184 45q-69 -18 -98 -70.5 t-27 -101.5z" />
<glyph unicode="&#xd2;" horiz-adv-x="1396" d="M246 735q0 -179 24 -291q34 -152 111 -256q77 -106 201 -165q105 -48 239 -48q135 0 240 48q124 59 201 165q82 110 110 256q25 117 25 291q0 172 -25 289q-29 148 -110 258q-80 109 -201 164q-107 49 -240 49q-132 0 -239 -49q-121 -55 -201 -164q-77 -103 -111 -258 q-24 -112 -24 -289zM422 735q0 316 96 447q49 67 128.5 104t174.5 37t174.5 -37t128.5 -104q97 -132 97 -447q0 -316 -97 -448q-49 -67 -128 -102t-175 -35t-175 35t-128 102q-96 131 -96 448zM643 1776l283 -179l73 95l-278 209z" />
<glyph unicode="&#xd3;" horiz-adv-x="1396" d="M246 735q0 -179 24 -291q34 -152 111 -256q77 -106 201 -165q105 -48 239 -48q135 0 240 48q124 59 201 165q82 110 110 256q25 117 25 291q0 172 -25 289q-29 148 -110 258q-80 109 -201 164q-107 49 -240 49q-132 0 -239 -49q-121 -55 -201 -164q-77 -103 -111 -258 q-24 -112 -24 -289zM422 735q0 316 96 447q49 67 128.5 104t174.5 37t174.5 -37t128.5 -104q97 -132 97 -447q0 -316 -97 -448q-49 -67 -128 -102t-175 -35t-175 35t-128 102q-96 131 -96 448zM643 1692l279 209l77 -125l-282 -179z" />
<glyph unicode="&#xd4;" horiz-adv-x="1396" d="M246 735q0 -179 24 -291q34 -152 111 -256q77 -106 201 -165q105 -48 239 -48q135 0 240 48q124 59 201 165q82 110 110 256q25 117 25 291q0 172 -25 289q-29 148 -110 258q-80 109 -201 164q-107 49 -240 49q-132 0 -239 -49q-121 -55 -201 -164q-77 -103 -111 -258 q-24 -112 -24 -289zM422 735q0 316 96 447q49 67 128.5 104t174.5 37t174.5 -37t128.5 -104q97 -132 97 -447q0 -316 -97 -448q-49 -67 -128 -102t-175 -35t-175 35t-128 102q-96 131 -96 448zM514 1597h150l157 244l156 -244h149l-215 342h-182z" />
<glyph unicode="&#xd5;" horiz-adv-x="1396" d="M246 735q0 -179 24 -291q34 -152 111 -256q77 -106 201 -165q105 -48 239 -48q135 0 240 48q124 59 201 165q82 110 110 256q25 117 25 291q0 172 -25 289q-29 148 -110 258q-80 109 -201 164q-107 49 -240 49q-132 0 -239 -49q-121 -55 -201 -164q-77 -103 -111 -258 q-24 -112 -24 -289zM422 735q0 316 96 447q49 67 128.5 104t174.5 37t174.5 -37t128.5 -104q97 -132 97 -447q0 -316 -97 -448q-49 -67 -128 -102t-175 -35t-175 35t-128 102q-96 131 -96 448zM545 1640h125q2 17 6 23q9 17 26 20q18 4 91 -34q89 -52 143 -52q7 0 37 5 q70 17 99.5 69.5t27.5 100.5h-127q-2 -9 -6 -23q-6 -15 -25 -18q-21 -5 -88 36q-113 62 -184 45q-69 -18 -98 -70.5t-27 -101.5z" />
<glyph unicode="&#xd6;" horiz-adv-x="1396" d="M246 735q0 -179 24 -291q34 -152 111 -256q77 -106 201 -165q105 -48 239 -48q135 0 240 48q124 59 201 165q82 110 110 256q25 117 25 291q0 172 -25 289q-29 148 -110 258q-80 109 -201 164q-107 49 -240 49q-132 0 -239 -49q-121 -55 -201 -164q-77 -103 -111 -258 q-24 -112 -24 -289zM422 735q0 316 96 447q49 67 128.5 104t174.5 37t174.5 -37t128.5 -104q97 -132 97 -447q0 -316 -97 -448q-49 -67 -128 -102t-175 -35t-175 35t-128 102q-96 131 -96 448zM567 1597h162v168h-162v-168zM915 1597h162v168h-162v-168z" />
<glyph unicode="&#xd9;" horiz-adv-x="1388" d="M328 487q0 -223 135 -362q139 -148 393 -148q263 0 401 150q45 48 74.5 107t39 111t12 82.5t1.5 49.5v987h-167v-1003q0 -142 -80 -228q-97 -104 -281 -104q-171 0 -270 102q-26 26 -44.5 61t-27 62.5t-13 58.5t-5 41t-0.5 19v991h-168v-977zM678 1745l283 -178l73 94 l-278 209z" />
<glyph unicode="&#xda;" horiz-adv-x="1388" d="M328 487q0 -223 135 -362q139 -148 393 -148q263 0 401 150q45 48 74.5 107t39 111t12 82.5t1.5 49.5v987h-167v-1003q0 -142 -80 -228q-97 -104 -281 -104q-171 0 -270 102q-26 26 -44.5 61t-27 62.5t-13 58.5t-5 41t-0.5 19v991h-168v-977zM678 1661l278 209l78 -125 l-282 -178z" />
<glyph unicode="&#xdb;" horiz-adv-x="1388" d="M328 487q0 -223 135 -362q139 -148 393 -148q263 0 401 150q45 48 74.5 107t39 111t12 82.5t1.5 49.5v987h-167v-1003q0 -142 -80 -228q-97 -104 -281 -104q-171 0 -270 102q-26 26 -44.5 61t-27 62.5t-13 58.5t-5 41t-0.5 19v991h-168v-977zM549 1567h149l158 243 l156 -243h149l-215 342h-182z" />
<glyph unicode="&#xdc;" horiz-adv-x="1388" d="M328 487q0 -223 135 -362q139 -148 393 -148q263 0 401 150q45 48 74.5 107t39 111t12 82.5t1.5 49.5v987h-167v-1003q0 -142 -80 -228q-97 -104 -281 -104q-171 0 -270 102q-26 26 -44.5 61t-27 62.5t-13 58.5t-5 41t-0.5 19v991h-168v-977zM602 1567h162v168h-162v-168 zM950 1567h162v168h-162v-168z" />
<glyph unicode="&#xdd;" horiz-adv-x="1075" d="M74 1464h184l322 -770l319 770h184l-419 -977v-487h-170v487zM399 1661l279 209l78 -125l-283 -178z" />
<glyph unicode="&#xdf;" horiz-adv-x="1200" d="M340 0v1153q0 8 0.5 22.5t8.5 56.5t22 79.5t44.5 84t72 79.5t110 56t152.5 23q9 0 23.5 -0.5t57 -7t81 -19.5t86 -42.5t81 -70.5t57 -109t23.5 -152q0 -63 -15.5 -121t-37.5 -96t-43.5 -67.5t-36.5 -42.5l-16 -13q105 -55 161 -131q80 -119 80 -274q0 -68 -10 -117 q-27 -133 -121 -215q-99 -80 -239 -80q-69 0 -146 18l39 166q160 -38 238 25q69 57 69 198q0 193 -159 269q-38 18 -82.5 29t-63 12.5t-26.5 1.5v159q62 0 111 28t76 72t40.5 90.5t13.5 90.5q0 13 -2 33.5t-18 63.5t-43 71q-61 61 -178 61q-121 0 -179 -61q-61 -64 -61 -166 l-2 -1157h-168z" />
<glyph unicode="&#xe0;" d="M250 242q-6 78 18.5 155t79.5 133t127 66q23 4 70 4q110 0 280 -37l35 -8v80q3 103 -14 143q-21 49 -84 60q-24 4 -39 4q-115 0 -336 -101l-4 -2l-104 131l4 2q26 16 61.5 34t101 45.5t147 45t159.5 17.5q84 0 151 -33q111 -56 123 -182q2 -13 2.5 -212t-0.5 -392v-193 h-168v53l-35 -12q-131 -61 -297 -61q-120 0 -194.5 70t-83.5 190zM408 252q6 -100 120 -100q39 0 59.5 0.5t57.5 1.5t57.5 4.5t49.5 9t45 15.5t32.5 22.5t23.5 31.5t7 42v129l-20 4q-106 24 -230 24q-69 0 -121 -8q-33 -7 -57 -57q-30 -61 -24 -119zM457 1294l282 -178 l74 94l-278 209zM752 1014z" />
<glyph unicode="&#xe1;" d="M250 242q-6 78 18.5 155t79.5 133t127 66q23 4 70 4q110 0 280 -37l35 -8v80q3 103 -14 143q-21 49 -84 60q-24 4 -39 4q-115 0 -336 -101l-4 -2l-104 131l4 2q26 16 61.5 34t101 45.5t147 45t159.5 17.5q84 0 151 -33q111 -56 123 -182q2 -13 2.5 -212t-0.5 -392v-193 h-168v53l-35 -12q-131 -61 -297 -61q-120 0 -194.5 70t-83.5 190zM408 252q6 -100 120 -100q39 0 59.5 0.5t57.5 1.5t57.5 4.5t49.5 9t45 15.5t32.5 22.5t23.5 31.5t7 42v129l-20 4q-106 24 -230 24q-69 0 -121 -8q-33 -7 -57 -57q-30 -61 -24 -119zM457 1210l278 209 l78 -125l-283 -178zM752 1014z" />
<glyph unicode="&#xe2;" d="M250 242q-6 78 18.5 155t79.5 133t127 66q23 4 70 4q110 0 280 -37l35 -8v80q3 103 -14 143q-21 49 -84 60q-24 4 -39 4q-115 0 -336 -101l-4 -2l-104 131l4 2q26 16 61.5 34t101 45.5t147 45t159.5 17.5q84 0 151 -33q111 -56 123 -182q2 -13 2.5 -212t-0.5 -392v-193 h-168v53l-35 -12q-131 -61 -297 -61q-120 0 -194.5 70t-83.5 190zM328 1116h149l158 244l156 -244h149l-215 342h-182zM408 252q6 -100 120 -100q39 0 59.5 0.5t57.5 1.5t57.5 4.5t49.5 9t45 15.5t32.5 22.5t23.5 31.5t7 42v129l-20 4q-106 24 -230 24q-69 0 -121 -8 q-33 -7 -57 -57q-30 -61 -24 -119zM752 1014z" />
<glyph unicode="&#xe3;" d="M250 242q-6 78 18.5 155t79.5 133t127 66q23 4 70 4q110 0 280 -37l35 -8v80q3 103 -14 143q-21 49 -84 60q-24 4 -39 4q-115 0 -336 -101l-4 -2l-104 131l4 2q26 16 61.5 34t101 45.5t147 45t159.5 17.5q84 0 151 -33q111 -56 123 -182q2 -13 2.5 -212t-0.5 -392v-193 h-168v53l-35 -12q-131 -61 -297 -61q-120 0 -194.5 70t-83.5 190zM358 1159h125q2 17 6 23q8 17 27 20q16 3 90 -35q88 -51 144 -51q12 0 36 4q70 17 99.5 69.5t27.5 100.5h-127q-2 -8 -6 -22q-6 -16 -24 -19q-20 -5 -88 37q-114 62 -185 45q-69 -18 -98 -70.5t-27 -101.5z M408 252q6 -100 120 -100q39 0 59.5 0.5t57.5 1.5t57.5 4.5t49.5 9t45 15.5t32.5 22.5t23.5 31.5t7 42v129l-20 4q-106 24 -230 24q-69 0 -121 -8q-33 -7 -57 -57q-30 -61 -24 -119zM752 1014z" />
<glyph unicode="&#xe4;" d="M250 242q-6 78 18.5 155t79.5 133t127 66q23 4 70 4q110 0 280 -37l35 -8v80q3 103 -14 143q-21 49 -84 60q-24 4 -39 4q-115 0 -336 -101l-4 -2l-104 131l4 2q26 16 61.5 34t101 45.5t147 45t159.5 17.5q84 0 151 -33q111 -56 123 -182q2 -13 2.5 -212t-0.5 -392v-193 h-168v53l-35 -12q-131 -61 -297 -61q-120 0 -194.5 70t-83.5 190zM381 1116h162v168h-162v-168zM408 252q6 -100 120 -100q39 0 59.5 0.5t57.5 1.5t57.5 4.5t49.5 9t45 15.5t32.5 22.5t23.5 31.5t7 42v129l-20 4q-106 24 -230 24q-69 0 -121 -8q-33 -7 -57 -57 q-30 -61 -24 -119zM729 1116h162v168h-162v-168zM752 1014z" />
<glyph unicode="&#xe5;" d="M250 242q-6 78 18.5 155t79.5 133t127 66q23 4 70 4q110 0 280 -37l35 -8v80q3 103 -14 143q-21 49 -84 60q-24 4 -39 4q-115 0 -336 -101l-4 -2l-104 131l4 2q26 16 61.5 34t101 45.5t147 45t159.5 17.5q84 0 151 -33q111 -56 123 -182q2 -13 2.5 -212t-0.5 -392v-193 h-168v53l-35 -12q-131 -61 -297 -61q-120 0 -194.5 70t-83.5 190zM408 252q6 -100 120 -100q39 0 59.5 0.5t57.5 1.5t57.5 4.5t49.5 9t45 15.5t32.5 22.5t23.5 31.5t7 42v129l-20 4q-106 24 -230 24q-69 0 -121 -8q-33 -7 -57 -57q-30 -61 -24 -119zM451 1300 q0 -75 53.5 -129.5t128.5 -54.5t129.5 54.5t54.5 129.5t-54.5 130t-129.5 55t-128.5 -55t-53.5 -130zM557 1300q0 33 22 57.5t54 24.5t54 -24.5t22 -57.5t-22 -58t-54 -25t-54 25t-22 58zM752 1014z" />
<glyph unicode="&#xe8;" horiz-adv-x="1073" d="M217 504q0 239 111 375q53 64 145 104q81 35 184 35q209 0 316 -125q100 -112 100 -315v-158h-684q12 -134 72 -197t219 -63q69 0 156 17.5t135 39.5l69 -154q-65 -29 -169 -51t-191 -22q-229 0 -342 116q-60 60 -92 168q-29 102 -29 230zM389 569h514v9q0 138 -57 204 t-189 66t-198 -78q-61 -74 -70 -201zM467 1298l283 -178l73 94l-278 209z" />
<glyph unicode="&#xe9;" horiz-adv-x="1073" d="M217 504q0 239 111 375q53 64 145 104q81 35 184 35q209 0 316 -125q100 -112 100 -315v-158h-684q12 -134 72 -197t219 -63q69 0 156 17.5t135 39.5l69 -154q-65 -29 -169 -51t-191 -22q-229 0 -342 116q-60 60 -92 168q-29 102 -29 230zM389 569h514v9q0 138 -57 204 t-189 66t-198 -78q-61 -74 -70 -201zM467 1214l278 209l78 -125l-282 -178z" />
<glyph unicode="&#xea;" horiz-adv-x="1073" d="M217 504q0 239 111 375q53 64 145 104q81 35 184 35q209 0 316 -125q100 -112 100 -315v-158h-684q12 -134 72 -197t219 -63q69 0 156 17.5t135 39.5l69 -154q-65 -29 -169 -51t-191 -22q-229 0 -342 116q-60 60 -92 168q-29 102 -29 230zM338 1120h149l158 244l156 -244 h149l-215 342h-182zM389 569h514v9q0 138 -57 204t-189 66t-198 -78q-61 -74 -70 -201z" />
<glyph unicode="&#xeb;" horiz-adv-x="1073" d="M217 504q0 239 111 375q53 64 145 104q81 35 184 35q209 0 316 -125q100 -112 100 -315v-158h-684q12 -134 72 -197t219 -63q69 0 156 17.5t135 39.5l69 -154q-65 -29 -169 -51t-191 -22q-229 0 -342 116q-60 60 -92 168q-29 102 -29 230zM389 569h514v9q0 138 -57 204 t-189 66t-198 -78q-61 -74 -70 -201zM391 1120h162v168h-162v-168zM739 1120h162v168h-162v-168z" />
<glyph unicode="&#xf1;" horiz-adv-x="1144" d="M336 0v989h170v-180q41 45 64.5 68t70 62t92 58t90.5 19q152 0 238 -78q94 -85 94 -238v-700h-170v700q0 77 -39 113q-18 17 -47.5 26t-49.5 9h-20q-33 0 -68 -16t-74.5 -51.5t-55.5 -51t-51 -53.5q-69 -77 -74 -197v-479h-170zM469 1165h125q2 17 6 23q8 17 27 20 q17 4 90 -34q89 -52 143 -52q13 0 37 4q70 17 99.5 69.5t27.5 100.5h-127q-2 -8 -6 -22q-6 -16 -25 -19q-20 -5 -88 37q-113 62 -184 45q-69 -18 -98 -70.5t-27 -101.5z" />
<glyph unicode="&#xf2;" d="M217 504q0 -87 25.5 -200.5t87.5 -190.5q59 -73 137.5 -98t171.5 -25q94 0 173 25t140 98q62 77 86.5 189.5t24.5 201.5t-24.5 201.5t-86.5 189.5q-58 72 -136.5 96.5t-176.5 24.5q-96 0 -173.5 -24.5t-135.5 -96.5q-62 -77 -87.5 -190.5t-25.5 -200.5zM395 504 q0 96 17 178t47 119q26 32 66 44.5t114 12.5t115 -12.5t67 -44.5q30 -37 47 -119t17 -178t-17 -178t-47 -119q-27 -33 -68 -46.5t-114 -13.5q-72 0 -112 13t-68 47q-30 36 -47 118t-17 179zM461 1296l282 -178l74 94l-278 209z" />
<glyph unicode="&#xf3;" d="M217 504q0 -87 25.5 -200.5t87.5 -190.5q59 -73 137.5 -98t171.5 -25q94 0 173 25t140 98q62 77 86.5 189.5t24.5 201.5t-24.5 201.5t-86.5 189.5q-58 72 -136.5 96.5t-176.5 24.5q-96 0 -173.5 -24.5t-135.5 -96.5q-62 -77 -87.5 -190.5t-25.5 -200.5zM395 504 q0 96 17 178t47 119q26 32 66 44.5t114 12.5t115 -12.5t67 -44.5q30 -37 47 -119t17 -178t-17 -178t-47 -119q-27 -33 -68 -46.5t-114 -13.5q-72 0 -112 13t-68 47q-30 36 -47 118t-17 179zM461 1212l278 209l78 -125l-282 -178z" />
<glyph unicode="&#xf4;" d="M217 504q0 -87 25.5 -200.5t87.5 -190.5q59 -73 137.5 -98t171.5 -25q94 0 173 25t140 98q62 77 86.5 189.5t24.5 201.5t-24.5 201.5t-86.5 189.5q-58 72 -136.5 96.5t-176.5 24.5q-96 0 -173.5 -24.5t-135.5 -96.5q-62 -77 -87.5 -190.5t-25.5 -200.5zM332 1118h149 l158 244l156 -244h149l-215 342h-182zM395 504q0 96 17 178t47 119q26 32 66 44.5t114 12.5t115 -12.5t67 -44.5q30 -37 47 -119t17 -178t-17 -178t-47 -119q-27 -33 -68 -46.5t-114 -13.5q-72 0 -112 13t-68 47q-30 36 -47 118t-17 179z" />
<glyph unicode="&#xf5;" d="M217 504q0 -87 25.5 -200.5t87.5 -190.5q59 -73 137.5 -98t171.5 -25q94 0 173 25t140 98q62 77 86.5 189.5t24.5 201.5t-24.5 201.5t-86.5 189.5q-58 72 -136.5 96.5t-176.5 24.5q-96 0 -173.5 -24.5t-135.5 -96.5q-62 -77 -87.5 -190.5t-25.5 -200.5zM362 1161h125 q3 17 7 23q9 17 26 20q16 3 90 -35q88 -51 144 -51q13 0 37 4q70 17 99.5 69.5t27.5 100.5h-127q-3 -8 -7 -22q-6 -16 -24 -19q-20 -5 -88 37q-114 62 -185 45q-69 -18 -98 -70.5t-27 -101.5zM395 504q0 96 17 178t47 119q26 32 66 44.5t114 12.5t115 -12.5t67 -44.5 q30 -37 47 -119t17 -178t-17 -178t-47 -119q-27 -33 -68 -46.5t-114 -13.5q-72 0 -112 13t-68 47q-30 36 -47 118t-17 179z" />
<glyph unicode="&#xf6;" d="M217 504q0 -87 25.5 -200.5t87.5 -190.5q59 -73 137.5 -98t171.5 -25q94 0 173 25t140 98q62 77 86.5 189.5t24.5 201.5t-24.5 201.5t-86.5 189.5q-58 72 -136.5 96.5t-176.5 24.5q-96 0 -173.5 -24.5t-135.5 -96.5q-62 -77 -87.5 -190.5t-25.5 -200.5zM385 1118h162v168 h-162v-168zM395 504q0 96 17 178t47 119q26 32 66 44.5t114 12.5t115 -12.5t67 -44.5q30 -37 47 -119t17 -178t-17 -178t-47 -119q-27 -33 -68 -46.5t-114 -13.5q-72 0 -112 13t-68 47q-30 36 -47 118t-17 179zM733 1118h162v168h-162v-168z" />
<glyph unicode="&#xf9;" horiz-adv-x="1144" d="M307 291v698h170v-698q0 -79 37 -113q37 -35 121 -35q137 0 250 101q49 43 76 84v661h169v-989h-169v84q-147 -111 -320 -111h-20q-135 0 -220 76q-94 85 -94 242zM541 1270l282 -178l74 94l-279 209z" />
<glyph unicode="&#xfa;" horiz-adv-x="1144" d="M307 291v698h170v-698q0 -79 37 -113q37 -35 121 -35q137 0 250 101q49 43 76 84v661h169v-989h-169v84q-147 -111 -320 -111h-20q-135 0 -220 76q-94 85 -94 242zM541 1186l278 209l78 -125l-283 -178z" />
<glyph unicode="&#xfb;" horiz-adv-x="1144" d="M307 291v698h170v-698q0 -79 37 -113q37 -35 121 -35q137 0 250 101q49 43 76 84v661h169v-989h-169v84q-147 -111 -320 -111h-20q-135 0 -220 76q-94 85 -94 242zM412 1092h149l158 243l155 -243h150l-215 342h-182z" />
<glyph unicode="&#xfc;" horiz-adv-x="1144" d="M307 291v698h170v-698q0 -79 37 -113q37 -35 121 -35q137 0 250 101q49 43 76 84v661h169v-989h-169v84q-147 -111 -320 -111h-20q-135 0 -220 76q-94 85 -94 242zM465 1092h162v168h-162v-168zM813 1092h162v168h-162v-168z" />
<glyph unicode="&#xfd;" horiz-adv-x="1069" d="M98 991h181l307 -819l309 819h178l-481 -1294q-6 -6 -19 -35q-16 -32 -47 -57q-33 -26 -94 -56q-64 -28 -151 -28v172q91 0 122 28q15 13 35 33l60 166zM408 1188l278 209l78 -125l-283 -178z" />
<glyph unicode="&#xff;" horiz-adv-x="1069" d="M98 991h181l307 -819l309 819h178l-481 -1294q-6 -6 -19 -35q-16 -32 -47 -57q-33 -26 -94 -56q-64 -28 -151 -28v172q91 0 122 28q15 13 35 33l60 166zM332 1094h162v168h-162v-168zM680 1094h162v168h-162v-168z" />
<glyph unicode="&#x178;" horiz-adv-x="1075" d="M74 1464h184l322 -770l319 770h184l-419 -977v-487h-170v487zM324 1567h161v168h-161v-168zM672 1567h162v168h-162v-168z" />
<glyph unicode="&#x2c6;" horiz-adv-x="915" d="M311 1081h150l157 244l156 -244h150l-215 342h-183z" />
<glyph unicode="&#x2dc;" horiz-adv-x="884" d="M322 1200h124q3 17 7 23q9 17 26 20q16 3 90 -35q88 -51 144 -51q13 0 37 4q70 17 99.5 69.5t27.5 100.5h-127q-3 -8 -7 -22q-6 -16 -24 -19q-20 -5 -88 37q-114 62 -185 45q-48 -12 -78 -46t-38.5 -65t-7.5 -61z" />
<glyph unicode="&#x2000;" horiz-adv-x="969" />
<glyph unicode="&#x2001;" horiz-adv-x="1939" />
<glyph unicode="&#x2002;" horiz-adv-x="969" />
<glyph unicode="&#x2003;" horiz-adv-x="1939" />
<glyph unicode="&#x2004;" horiz-adv-x="646" />
<glyph unicode="&#x2005;" horiz-adv-x="484" />
<glyph unicode="&#x2006;" horiz-adv-x="323" />
<glyph unicode="&#x2007;" horiz-adv-x="323" />
<glyph unicode="&#x2008;" horiz-adv-x="242" />
<glyph unicode="&#x2009;" horiz-adv-x="387" />
<glyph unicode="&#x200a;" horiz-adv-x="107" />
<glyph unicode="&#x2010;" horiz-adv-x="743" d="M193 500h550v133h-550v-133z" />
<glyph unicode="&#x2011;" horiz-adv-x="743" d="M193 500h550v133h-550v-133z" />
<glyph unicode="&#x2012;" horiz-adv-x="743" d="M193 500h550v133h-550v-133z" />
<glyph unicode="&#x2013;" horiz-adv-x="858" d="M98 512h760v109h-760v-109z" />
<glyph unicode="&#x2014;" horiz-adv-x="1218" d="M98 512h1121v109h-1121v-109z" />
<glyph unicode="&#x2018;" horiz-adv-x="663" d="M274 985l238 467l111 -29l-138 -438h-211z" />
<glyph unicode="&#x2019;" horiz-adv-x="667" d="M356 1016l140 436h213l-238 -467z" />
<glyph unicode="&#x201a;" horiz-adv-x="667" d="M356 -238l140 441h213l-240 -467z" />
<glyph unicode="&#x201c;" horiz-adv-x="999" d="M274 989l240 467l111 -31l-138 -436h-213zM608 989l238 467l112 -31l-137 -436h-213z" />
<glyph unicode="&#x201d;" horiz-adv-x="999" d="M356 1020l138 436h213l-238 -467zM690 1020l137 436h213l-239 -467z" />
<glyph unicode="&#x201e;" horiz-adv-x="999" d="M356 -238l140 441h213l-240 -467zM690 -238l139 441h211l-237 -467z" />
<glyph unicode="&#x2022;" horiz-adv-x="731" d="M315 520q0 -84 64.5 -145.5t144.5 -61.5t143.5 61.5t63.5 145.5t-63.5 145.5t-143.5 61.5t-144.5 -61.5t-64.5 -145.5z" />
<glyph unicode="&#x202f;" horiz-adv-x="387" />
<glyph unicode="&#x205f;" horiz-adv-x="484" />
<glyph unicode="&#x20ac;" horiz-adv-x="1325" d="M184 473l31 139h137q-6 56 -6 113v18q0 55 6 107h-168l31 139h158q2 8 5 22.5t5 22.5q41 165 137 271q88 98 234 143q119 33 264 33q165 0 307 -58l-63 -157q-109 45 -244 45q-126 0 -215 -25q-97 -26 -160 -96q-66 -69 -96 -199v-2h583l-30 -139h-578q-8 -78 -8 -115 q0 -41 8 -123h608l-30 -139h-551q30 -127 94 -197q61 -67 160 -94q85 -24 215 -24q140 0 244 43l63 -158q-146 -57 -307 -57q-149 0 -264 32q-141 43 -234 144q-94 105 -137 274q-2 6 -4 18.5t-4 18.5h-191z" />
<glyph unicode="&#x25fc;" horiz-adv-x="993" d="M0 0v993h993v-993h-993z" />
<glyph unicode="&#xfb01;" horiz-adv-x="1206" d="M168 827h166v-827h168v827h450v-827h174l-4 987h-620v256q0 3 4 27q7 24 16 33q16 16 56 16q32 0 88 -21q45 -14 92 -41l82 138q-13 9 -105 49q-79 40 -157 37q-62 3 -115 -23q-38 -16 -66 -47q-48 -48 -57 -108q-6 -55 -6 -74v-242h-166v-160z" />
<glyph unicode="&#xfb02;" horiz-adv-x="1458" d="M168 827v160h164v227q0 16 6 72q9 59 57 107q24 24 66 49q48 25 112 22h580v-1239l4 -28q7 -22 14 -31q16 -16 56 -16q30 3 90 22q27 11 92 45l80 -149q-17 -12 -105 -50q-76 -36 -157 -36q-67 3 -113 22q-37 20 -65 45q-49 49 -58 109q-6 61 -6 73v1072h-412 q-38 0 -55 -17q-9 -9 -16 -33q-2 -12 -2 -26v-240h280v-160h-280v-825h-168v825h-164z" />
<glyph unicode="&#xfb03;" horiz-adv-x="1841" d="M168 827h166v-827h168v827h471v-827h168v827h450v-827h170v987h-620v256q0 3 4 27q7 24 16 33q16 16 56 16q33 0 88 -21q45 -14 92 -41l82 138q-13 9 -105 49q-79 40 -157 37q-62 3 -115 -23q-38 -16 -66 -47q-48 -48 -57 -108q-6 -55 -6 -74v-242h-471v219q0 3 4 27 q7 24 16 33q16 16 56 16q35 0 88 -20q45 -14 92 -41l82 147q-20 13 -105 43q-76 33 -157 33q-62 3 -115 -23q-38 -16 -66 -47q-48 -48 -57 -108q-6 -56 -6 -74v-205h-166v-160z" />
<glyph unicode="&#xfb04;" horiz-adv-x="2119" d="M168 827v160h164v209q0 16 6 72q6 59 53 106q26 26 68 49q47 23 114 23q80 0 162 -33q79 -28 105 -45l-82 -143q-40 22 -94 39q-53 20 -91 20q-34 3 -53 -16q-12 -9 -18 -60v-221h471v227q0 16 6 72q9 59 57 107q28 28 66 49q45 25 112 22h580v-1239l4 -28q7 -22 14 -31 q16 -16 56 -16q29 2 90 22q22 9 55.5 26t36.5 19l80 -149q-17 -12 -105 -50q-76 -36 -157 -36q-63 3 -113 22q-42 25 -65 45q-49 49 -58 109q-6 62 -6 73v1072h-412q-38 0 -55 -17q-11 -14 -16 -33q0 -7 -1 -15.5t-1 -10.5v-240h280v-160h-280v-825h-168v825h-471v-825h-170 v825h-164z" />
</font>
</defs>
</svg>
